File Size122.3 MB (128,266,932 bytes)
DownloadClickNUpload | Jheberg | MultiUp
  • BdUpload
  • DownAce
  • Fichier
  • FileCloud
  • Filerio
  • FilesCdn
  • IndiShare
  • Kbagi
  • Turbobit
  • UpToBox
  • Uppit
| Sendspace | SolidFiles | ZippyShare
HashesCRC32: CEB4D462, MD5: 514494DD05BBC08B3A5016E362539EC9, SHA1: 24E25902313C16CFC66CD00AE46CD750F620664C, SHA256: 9B15405C09D2DE06FFB76BF69720281A69FD0A652206D52A95FE39674DF76517, ED2K: 40C2C6D74D67DBCA274FCF8166A0149F
Screenshots
screenshotscreenshotscreenshotscreenshotscreenshot
SubtitlesAll Attachments | English Subtitles [eng, ASS]
Additional Info
General
Unique ID                                : 64588872298612322467687276185486446638 (0x30975D444C8B6BE8B28A0285F72D502E)
Complete name                            : [HnY] Beyblade Burst GT 46 (1280x720 x264 AAC) [CEB4D462].mkv
Format                                   : Matroska
Format version                           : Version 4
File size                                : 122 MiB
Duration                                 : 12 min 25 s
Overall bit rate mode                    : Variable
Overall bit rate                         : 1 377 kb/s
Encoded date                             : UTC 2020-02-21 08:53:17
Writing application                      : mkvmerge v21.0.0 ('Tardigrades Will Inherit The Earth') 64-bit
Writing library                          : libebml v1.3.5 + libmatroska v1.4.8

Video
ID                                       : 1
Format                                   : AVC
Format/Info                              : Advanced Video Codec
Format profile                           : Main@L3.1
Format settings                          : CABAC / 3 Ref Frames
Format settings, CABAC                   : Yes
Format settings, ReFrames                : 3 frames
Codec ID                                 : V_MPEG4/ISO/AVC
Duration                                 : 12 min 25 s
Bit rate mode                            : Variable
Bit rate                                 : 1 247 kb/s
Maximum bit rate                         : 40.0 Mb/s
Width                                    : 1 280 pixels
Height                                   : 720 pixels
Display aspect ratio                     : 16:9
Frame rate mode                          : Constant
Frame rate                               : 30.000 FPS
Color space                              : YUV
Chroma subsampling                       : 4:2:0
Bit depth                                : 8 bits
Scan type                                : Progressive
Bits/(Pixel*Frame)                       : 0.045
Stream size                              : 111 MiB (91%)
Language                                 : Japanese
Default                                  : Yes
Forced                                   : No
Color range                              : Limited
Color primaries                          : BT.709
Transfer characteristics                 : BT.709
Matrix coefficients                      : BT.709

Audio
ID                                       : 2
Format                                   : AAC LC
Format/Info                              : Advanced Audio Codec Low Complexity
Codec ID                                 : A_AAC-2
Duration                                 : 12 min 25 s
Bit rate                                 : 128 kb/s
Channel(s)                               : 2 channels
Channel layout                           : L R
Sampling rate                            : 44.1 kHz
Frame rate                               : 43.066 FPS (1024 SPF)
Compression mode                         : Lossy
Delay relative to video                  : -9 ms
Stream size                              : 11.4 MiB (9%)
Language                                 : Japanese
Default                                  : Yes
Forced                                   : No

Text
ID                                       : 3
Format                                   : ASS
Codec ID                                 : S_TEXT/ASS
Codec ID/Info                            : Advanced Sub Station Alpha
Duration                                 : 11 min 55 s
Bit rate                                 : 97 b/s
Count of elements                        : 164
Compression mode                         : Lossless
Stream size                              : 8.51 KiB (0%)
Title                                    : English Subtitles
Language                                 : English
Default                                  : Yes
Forced                                   : No
beta
Anime DDL+NZB mirror
Current Time: 11/08/2020 01:35



About/FAQs