[HnY] Beyblade Burst GT 43 (1280x720 x264 AAC) [A22ABA22].mkv


File Size140.2 MB (147,055,431 bytes)
DownloadClickNUpload | Jheberg | MultiUp
  • BdUpload
  • DownAce
  • Fichier
  • FileCloud
  • Filerio
  • FilesCdn
  • IndiShare
  • Kbagi
  • Turbobit
  • UpToBox
  • Uppit
| Sendspace | SolidFiles | ZippyShare
HashesCRC32: A22ABA22, MD5: 498D6654C3FBBA1A5563A20242CF9B5B, SHA1: C0C8F8788286171BA1ACA84A3703BACA22432453, SHA256: A50D3FC20C2123AAA0CE313AFE1C94B114CA0A2F5EE3DBC51CE7D766F496567C, ED2K: 7A093EF6786BECAD574F9ED2170E9136
Screenshots
screenshotscreenshotscreenshotscreenshotscreenshot
SubtitlesAll Attachments | English Subtitles [eng, ASS]
Additional Info
General
Unique ID                                : 66950356750240727200028745245678179868 (0x325E2B707E6BDB22B00ADD1FAC21161C)
Complete name                            : [HnY] Beyblade Burst GT 43 (1280x720 x264 AAC) [A22ABA22].mkv
Format                                   : Matroska
Format version                           : Version 4
File size                                : 140 MiB
Duration                                 : 12 min 25 s
Overall bit rate mode                    : Variable
Overall bit rate                         : 1 579 kb/s
Encoded date                             : UTC 2020-01-30 20:02:15
Writing application                      : mkvmerge v21.0.0 ('Tardigrades Will Inherit The Earth') 64-bit
Writing library                          : libebml v1.3.5 + libmatroska v1.4.8
Attachments                              : OpenSans-Semibold.ttf

Video
ID                                       : 1
Format                                   : AVC
Format/Info                              : Advanced Video Codec
Format profile                           : Main@L3.1
Format settings                          : CABAC / 3 Ref Frames
Format settings, CABAC                   : Yes
Format settings, ReFrames                : 3 frames
Codec ID                                 : V_MPEG4/ISO/AVC
Duration                                 : 12 min 25 s
Bit rate mode                            : Variable
Bit rate                                 : 1 446 kb/s
Maximum bit rate                         : 40.0 Mb/s
Width                                    : 1 280 pixels
Height                                   : 720 pixels
Display aspect ratio                     : 16:9
Frame rate mode                          : Constant
Frame rate                               : 30.000 FPS
Color space                              : YUV
Chroma subsampling                       : 4:2:0
Bit depth                                : 8 bits
Scan type                                : Progressive
Bits/(Pixel*Frame)                       : 0.052
Stream size                              : 128 MiB (92%)
Language                                 : Japanese
Default                                  : Yes
Forced                                   : No
Color range                              : Limited
Color primaries                          : BT.709
Transfer characteristics                 : BT.709
Matrix coefficients                      : BT.709

Audio
ID                                       : 2
Format                                   : AAC LC
Format/Info                              : Advanced Audio Codec Low Complexity
Codec ID                                 : A_AAC-2
Duration                                 : 12 min 25 s
Bit rate                                 : 128 kb/s
Channel(s)                               : 2 channels
Channel layout                           : L R
Sampling rate                            : 44.1 kHz
Frame rate                               : 43.066 FPS (1024 SPF)
Compression mode                         : Lossy
Delay relative to video                  : -9 ms
Stream size                              : 11.4 MiB (8%)
Language                                 : Japanese
Default                                  : Yes
Forced                                   : No

Text
ID                                       : 3
Format                                   : ASS
Codec ID                                 : S_TEXT/ASS
Codec ID/Info                            : Advanced Sub Station Alpha
Duration                                 : 11 min 56 s
Bit rate                                 : 89 b/s
Count of elements                        : 164
Compression mode                         : Lossless
Stream size                              : 7.84 KiB (0%)
Title                                    : English Subtitles
Language                                 : English
Default                                  : Yes
Forced                                   : No

Menu
00:00:00.000                             : ja:Prologue
00:00:30.167                             : ja:Opening
00:01:15.233                             : ja:Episode
00:11:35.167                             : ja:Preview
00:12:00.100                             : :ED
beta
Anime DDL+NZB mirror
Current Time: 11/08/2020 00:22



About/FAQs