File Size151.1 MB (158,442,042 bytes)
DownloadClickNUpload | Jheberg | MultiUp
  • BdUpload
  • DownAce
  • Fichier
  • FileCloud
  • Filerio
  • FilesCdn
  • IndiShare
  • Kbagi
  • Turbobit
  • UpToBox
  • Uppit
| Sendspace | SolidFiles | UploadFiles | ZippyShare
HashesCRC32: C26856FE, MD5: 4C0E65CAFDCA07FDDE768B9F27C0EFDF, SHA1: AA254FB045EE6203745ECC844220941AC2CF14EF, SHA256: 9F35047CAD8BA4A0DCF3815DB749872965074B7C975524EB6BC4C70713225D29, ED2K: B9D20CF8C25F7A86B5141CD2D393673E
Screenshots
screenshotscreenshotscreenshotscreenshotscreenshot
SubtitlesAll Attachments | eng [ASS]
Additional Info
General
Unique ID                                : 192593796652928266727760057175815933 (0x25179B77E1484EF58D57932796B6FD)
Complete name                            : [HnY] Beyblade Burst GT 40 (1280x720 x264 AAC) [C26856FE].mkv
Format                                   : Matroska
Format version                           : Version 4
File size                                : 151 MiB
Duration                                 : 12 min 25 s
Overall bit rate mode                    : Variable
Overall bit rate                         : 1 701 kb/s
Encoded date                             : UTC 2020-01-10 02:59:16
Writing application                      : mkvmerge v21.0.0 ('Tardigrades Will Inherit The Earth') 64-bit
Writing library                          : libebml v1.3.5 + libmatroska v1.4.8
Attachments                              : OpenSans-Semibold.ttf

Video
ID                                       : 1
Format                                   : AVC
Format/Info                              : Advanced Video Codec
Format profile                           : Main@L3.1
Format settings                          : CABAC / 3 Ref Frames
Format settings, CABAC                   : Yes
Format settings, ReFrames                : 3 frames
Codec ID                                 : V_MPEG4/ISO/AVC
Duration                                 : 12 min 25 s
Bit rate mode                            : Variable
Bit rate                                 : 1 568 kb/s
Maximum bit rate                         : 40.0 Mb/s
Width                                    : 1 280 pixels
Height                                   : 720 pixels
Display aspect ratio                     : 16:9
Frame rate mode                          : Constant
Frame rate                               : 30.000 FPS
Color space                              : YUV
Chroma subsampling                       : 4:2:0
Bit depth                                : 8 bits
Scan type                                : Progressive
Bits/(Pixel*Frame)                       : 0.057
Stream size                              : 139 MiB (92%)
Language                                 : Japanese
Default                                  : Yes
Forced                                   : No
Color range                              : Limited
Color primaries                          : BT.709
Transfer characteristics                 : BT.709
Matrix coefficients                      : BT.709

Audio
ID                                       : 2
Format                                   : AAC LC
Format/Info                              : Advanced Audio Codec Low Complexity
Codec ID                                 : A_AAC-2
Duration                                 : 12 min 25 s
Bit rate                                 : 128 kb/s
Channel(s)                               : 2 channels
Channel layout                           : L R
Sampling rate                            : 44.1 kHz
Frame rate                               : 43.066 FPS (1024 SPF)
Compression mode                         : Lossy
Delay relative to video                  : -9 ms
Stream size                              : 11.4 MiB (8%)
Language                                 : Japanese
Default                                  : Yes
Forced                                   : No

Text
ID                                       : 3
Format                                   : ASS
Codec ID                                 : S_TEXT/ASS
Codec ID/Info                            : Advanced Sub Station Alpha
Duration                                 : 11 min 55 s
Bit rate                                 : 91 b/s
Count of elements                        : 173
Compression mode                         : Lossless
Stream size                              : 8.00 KiB (0%)
Language                                 : English
Default                                  : Yes
Forced                                   : No

Menu
00:00:00.000                             : ja:Prologue
00:00:30.167                             : ja:Opening
00:01:15.233                             : ja:Episode
00:11:35.167                             : ja:Preview
00:12:00.100                             : :ED
beta
Anime DDL+NZB mirror
Current Time: 07/08/2020 23:46



About/FAQs