File Size161.2 MB (169,062,382 bytes)
DownloadClickNUpload | Jheberg | MultiUp
  • BdUpload
  • DownAce
  • Fichier
  • FileCloud
  • Filerio
  • FilesCdn
  • IndiShare
  • Kbagi
  • Turbobit
  • UpToBox
  • Uppit
| OpenLoad | Sendspace | SolidFiles | ZippyShare
HashesCRC32: 2A10CC76, MD5: D94AE694B7E5A6F9FD79F776D5113D81, SHA1: 866A2B468C3B2B51799E753EDB5CD0F580C67A9D, SHA256: 5631FE046C34A51D9AC83E542614EEB25379869C2ABF0123452BA26616083245, ED2K: 877AD268221517493A0E2903F5BE9E50
Screenshots
screenshotscreenshotscreenshotscreenshotscreenshot
SubtitlesAll Attachments | English Subtitles [eng, ASS]
Additional Info
General
Unique ID                                : 251235682005941937166184557650049953395 (0xBD023B787F14B96ACFD24F84AB46EE73)
Complete name                            : [HnY] Beyblade Burst GT 19 (1280x720 x264 AAC) [2A10CC76].mkv
Format                                   : Matroska
Format version                           : Version 4
File size                                : 161 MiB
Duration                                 : 12 min 25 s
Overall bit rate mode                    : Variable
Overall bit rate                         : 1 815 kb/s
Encoded date                             : UTC 2019-08-14 01:26:32
Writing application                      : mkvmerge v21.0.0 ('Tardigrades Will Inherit The Earth') 64-bit
Writing library                          : libebml v1.3.5 + libmatroska v1.4.8
Attachments                              : OpenSans-Semibold.ttf

Video
ID                                       : 1
Format                                   : AVC
Format/Info                              : Advanced Video Codec
Format profile                           : Main@L3.1
Format settings                          : CABAC / 3 Ref Frames
Format settings, CABAC                   : Yes
Format settings, ReFrames                : 3 frames
Codec ID                                 : V_MPEG4/ISO/AVC
Duration                                 : 12 min 25 s
Bit rate mode                            : Variable
Bit rate                                 : 1 682 kb/s
Maximum bit rate                         : 40.0 Mb/s
Width                                    : 1 280 pixels
Height                                   : 720 pixels
Display aspect ratio                     : 16:9
Frame rate mode                          : Constant
Frame rate                               : 30.000 FPS
Color space                              : YUV
Chroma subsampling                       : 4:2:0
Bit depth                                : 8 bits
Scan type                                : Progressive
Bits/(Pixel*Frame)                       : 0.061
Stream size                              : 149 MiB (93%)
Language                                 : Japanese
Default                                  : Yes
Forced                                   : No
Color range                              : Limited
Color primaries                          : BT.709
Transfer characteristics                 : BT.709
Matrix coefficients                      : BT.709

Audio
ID                                       : 2
Format                                   : AAC LC
Format/Info                              : Advanced Audio Codec Low Complexity
Codec ID                                 : A_AAC-2
Duration                                 : 12 min 25 s
Bit rate                                 : 128 kb/s
Channel(s)                               : 2 channels
Channel layout                           : L R
Sampling rate                            : 44.1 kHz
Frame rate                               : 43.066 FPS (1024 SPF)
Compression mode                         : Lossy
Delay relative to video                  : -9 ms
Stream size                              : 11.4 MiB (7%)
Language                                 : Japanese
Default                                  : Yes
Forced                                   : No

Text
ID                                       : 3
Format                                   : ASS
Codec ID                                 : S_TEXT/ASS
Codec ID/Info                            : Advanced Sub Station Alpha
Duration                                 : 11 min 57 s
Bit rate                                 : 75 b/s
Count of elements                        : 133
Compression mode                         : Lossless
Stream size                              : 6.58 KiB (0%)
Title                                    : English Subtitles
Language                                 : English
Default                                  : Yes
Forced                                   : No

Menu
00:00:00.000                             : ja:Prologue
00:00:30.167                             : ja:Opening
00:01:15.233                             : ja:Episode
00:11:35.167                             : ja:Preview
00:12:00.100                             : :ED
beta
Anime DDL+NZB mirror
Current Time: 03/08/2020 17:44



About/FAQs