File Size133.8 MB (140,326,157 bytes)
DownloadClickNUpload | Jheberg | MultiUp
  • BdUpload
  • DownAce
  • Fichier
  • FileCloud
  • Filerio
  • FilesCdn
  • IndiShare
  • Kbagi
  • Solidfiles
  • Turbobit
  • UpToBox
  • Uppit
| OpenLoad | Sendspace | ZippyShare
HashesCRC32: A0F0AC75, MD5: BA03BEFDA098A635567F2304E3BC5CC0, SHA1: 18D3C09312984A705D521EF3333D46EBFC1DE81D, SHA256: F24B5A7A47F5BB63C8A74234C86877F58ABA08FB7C72B9F377EBF065E6052319, ED2K: ED4C2DC10A90260096002F5E590F5173
Screenshots
screenshotscreenshotscreenshotscreenshotscreenshot
SubtitlesAll Attachments | eng [ASS]
Additional Info
General
Unique ID                                : 46727959899225125371122127909345015991 (0x23277A4BEC7A5A406080543200B7B8B7)
Complete name                            : [HnY] Beyblade Burst GT 05 (1280x720 x264 AAC) [A0F0AC75].mkv
Format                                   : Matroska
Format version                           : Version 4
File size                                : 134 MiB
Duration                                 : 12 min 28 s
Overall bit rate mode                    : Variable
Overall bit rate                         : 1 500 kb/s
Encoded date                             : UTC 2019-05-07 06:14:10
Writing application                      : mkvmerge v21.0.0 ('Tardigrades Will Inherit The Earth') 64-bit
Writing library                          : libebml v1.3.5 + libmatroska v1.4.8
Attachments                              : OpenSans-Semibold.ttf

Video
ID                                       : 1
Format                                   : AVC
Format/Info                              : Advanced Video Codec
Format profile                           : Main@L3.1
Format settings                          : CABAC / 3 Ref Frames
Format settings, CABAC                   : Yes
Format settings, ReFrames                : 3 frames
Codec ID                                 : V_MPEG4/ISO/AVC
Duration                                 : 12 min 28 s
Bit rate mode                            : Variable
Bit rate                                 : 1 367 kb/s
Maximum bit rate                         : 40.0 Mb/s
Width                                    : 1 280 pixels
Height                                   : 720 pixels
Display aspect ratio                     : 16:9
Frame rate mode                          : Constant
Frame rate                               : 30.000 FPS
Color space                              : YUV
Chroma subsampling                       : 4:2:0
Bit depth                                : 8 bits
Scan type                                : Progressive
Bits/(Pixel*Frame)                       : 0.049
Stream size                              : 122 MiB (91%)
Language                                 : Japanese
Default                                  : Yes
Forced                                   : No
Color range                              : Limited
Color primaries                          : BT.709
Transfer characteristics                 : BT.709
Matrix coefficients                      : BT.709

Audio
ID                                       : 2
Format                                   : AAC LC
Format/Info                              : Advanced Audio Codec Low Complexity
Codec ID                                 : A_AAC-2
Duration                                 : 12 min 28 s
Bit rate                                 : 128 kb/s
Channel(s)                               : 2 channels
Channel layout                           : L R
Sampling rate                            : 44.1 kHz
Frame rate                               : 43.066 FPS (1024 SPF)
Compression mode                         : Lossy
Delay relative to video                  : -9 ms
Stream size                              : 11.4 MiB (9%)
Language                                 : Japanese
Default                                  : Yes
Forced                                   : No

Text
ID                                       : 3
Format                                   : ASS
Codec ID                                 : S_TEXT/ASS
Codec ID/Info                            : Advanced Sub Station Alpha
Duration                                 : 11 min 53 s
Bit rate                                 : 110 b/s
Count of elements                        : 185
Compression mode                         : Lossless
Stream size                              : 9.59 KiB (0%)
Language                                 : English
Default                                  : Yes
Forced                                   : No

Menu
00:00:00.000                             : ja:Prologue
00:00:30.167                             : ja:Opening
00:01:15.233                             : ja:Episode 3B
00:11:35.167                             : ja:Preview
00:12:00.200                             : :ED
beta
Anime DDL+NZB mirror
Current Time: 06/12/2019 05:44



About/FAQs