[HikkiBOY] Obake Zukan 16 [1080p].mkv


File Size30.80 MB (32,297,189 bytes)
DownloadAnonFiles | ClickNUpload | DropAPK | Free | MultiUp
  • BdUpload
  • DownAce
  • Fichier
  • FileCloud
  • Filerio
  • FilesCdn
  • IndiShare
  • Kbagi
  • Turbobit
  • UpToBox
  • Uppit
| Sendspace | ZippyShare
HashesCRC32: 02A50FC7, MD5: 8754E54E65DDD0EF0294A65E736A980E, SHA1: CE83C42B44E39C0D92CF3271DDD58F27D87C4532, SHA256: FF0D820DB5B0B81ABC854067495DE4C8D27A170802D0B30042F5B3512959FC21, ED2K: 19F29171D7549A23AA9A15EF7AC5FC29
Screenshots
screenshotscreenshotscreenshot
SubtitlesAll Attachments | [HikkiBOY] Obake Zukan Episode 16 [eng, ASS], P0STBOY meme subs for OZ Ep 16 [eng, ASS]
Additional Info
General
Unique ID                                : 200030037164799954206713515985902490663 (0x967C624307081E09BAF29627F2FFD427)
Complete name                            : [HikkiBOY] Obake Zukan 16 [1080p].mkv
Format                                   : Matroska
Format version                           : Version 4
File size                                : 30.8 MiB
Duration                                 : 2 min 31 s
Overall bit rate                         : 1 706 kb/s
Encoded date                             : UTC 2020-10-16 15:57:19
Writing application                      : mkvmerge v7.2.0 ('On Every Street') 32bit built on Sep 13 2014 15:42:11
Writing library                          : libebml v1.3.0 + libmatroska v1.4.1
Attachments                              : Cabin-Bold.ttf / shlop rg.ttf / Tahoma Regular font.ttf

Video
ID                                       : 1
Format                                   : AVC
Format/Info                              : Advanced Video Codec
Format profile                           : High@L4
Format settings                          : CABAC / 3 Ref Frames
Format settings, CABAC                   : Yes
Format settings, ReFrames                : 3 frames
Codec ID                                 : V_MPEG4/ISO/AVC
Duration                                 : 2 min 30 s
Bit rate                                 : 1 561 kb/s
Width                                    : 1 920 pixels
Height                                   : 1 080 pixels
Display aspect ratio                     : 16:9
Frame rate mode                          : Constant
Frame rate                               : 29.970 (30000/1001) FPS
Color space                              : YUV
Chroma subsampling                       : 4:2:0
Bit depth                                : 8 bits
Scan type                                : Progressive
Bits/(Pixel*Frame)                       : 0.025
Stream size                              : 27.9 MiB (91%)
Title                                    : [HikkiBOY] Obake Zukan Episode 16
Writing library                          : x264 core 155 r2901 7d0ff22
Language                                 : Japanese
Default                                  : Yes
Forced                                   : No
Color range                              : Limited
Color primaries                          : BT.709
Transfer characteristics                 : BT.709
Matrix coefficients                      : BT.709

Audio
ID                                       : 2
Format                                   : AAC LC
Format/Info                              : Advanced Audio Codec Low Complexity
Codec ID                                 : A_AAC-2
Duration                                 : 2 min 30 s
Bit rate                                 : 128 kb/s
Channel(s)                               : 2 channels
Channel layout                           : L R
Sampling rate                            : 44.1 kHz
Frame rate                               : 43.066 FPS (1024 SPF)
Compression mode                         : Lossy
Stream size                              : 2.29 MiB (7%)
Title                                    : JP
Language                                 : Japanese
Default                                  : Yes
Forced                                   : No

Text #1
ID                                       : 3
Format                                   : ASS
Codec ID                                 : S_TEXT/ASS
Codec ID/Info                            : Advanced Sub Station Alpha
Duration                                 : 2 min 29 s
Bit rate                                 : 167 b/s
Count of elements                        : 54
Compression mode                         : Lossless
Stream size                              : 3.06 KiB (0%)
Title                                    : [HikkiBOY] Obake Zukan Episode 16
Language                                 : English
Default                                  : Yes
Forced                                   : No

Text #2
ID                                       : 4
Format                                   : ASS
Codec ID                                 : S_TEXT/ASS
Codec ID/Info                            : Advanced Sub Station Alpha
Duration                                 : 2 min 31 s
Bit rate                                 : 141 b/s
Count of elements                        : 55
Compression mode                         : Lossless
Stream size                              : 2.62 KiB (0%)
Title                                    : P0STBOY meme subs for OZ Ep 16
Language                                 : English
Default                                  : No
Forced                                   : No
beta
Anime DDL+NZB mirror
Current Time: 12/05/2021 18:20



About/FAQs