[HikkiBOY] Obake Zukan 05 [1080p].mkv


File Size38.87 MB (40,758,109 bytes)
DownloadAnonFiles | ClickNUpload | DropAPK | Free | MultiUp
  • BdUpload
  • DownAce
  • Fichier
  • FileCloud
  • Filerio
  • FilesCdn
  • IndiShare
  • Kbagi
  • Turbobit
  • UpToBox
  • Uppit
| Sendspace | SolidFiles | ZippyShare
HashesCRC32: 6ABC0B6E, MD5: 242761723055B662F6A954F8716871C7, SHA1: 0B743883692FE07945ED866D3003085518163ED5, SHA256: A0F548EFF38B2FEF87834099FF19FD67D41742182B4ED0E2899BEFCD04E0EC91, ED2K: 301FC9C97E99DEE1C437A528E5DBB8A8
Screenshots
screenshotscreenshotscreenshot
SubtitlesAll Attachments | HIKKIBOY subs [eng, ASS], POSTBOY meme subs [eng, ASS]
Additional Info
General
Unique ID                                : 244949926842517665753554708875575984693 (0xB847A3D05D6D143182C8D715EA3A8235)
Complete name                            : [HikkiBOY] Obake Zukan 05 [1080p].mkv
Format                                   : Matroska
Format version                           : Version 4
File size                                : 38.9 MiB
Duration                                 : 2 min 30 s
Overall bit rate                         : 2 171 kb/s
Encoded date                             : UTC 2020-08-01 08:11:44
Writing application                      : mkvmerge v7.2.0 ('On Every Street') 32bit built on Sep 13 2014 15:42:11
Writing library                          : libebml v1.3.0 + libmatroska v1.4.1
Attachments                              : Cabin-Bold.ttf / CALIBRII.TTF / shlop rg.ttf / Tahoma Regular font.ttf

Video
ID                                       : 1
Format                                   : AVC
Format/Info                              : Advanced Video Codec
Format profile                           : High@L4
Format settings                          : CABAC / 3 Ref Frames
Format settings, CABAC                   : Yes
Format settings, ReFrames                : 3 frames
Codec ID                                 : V_MPEG4/ISO/AVC
Duration                                 : 2 min 30 s
Bit rate                                 : 1 993 kb/s
Width                                    : 1 920 pixels
Height                                   : 1 080 pixels
Display aspect ratio                     : 16:9
Frame rate mode                          : Constant
Frame rate                               : 29.970 (30000/1001) FPS
Color space                              : YUV
Chroma subsampling                       : 4:2:0
Bit depth                                : 8 bits
Scan type                                : Progressive
Bits/(Pixel*Frame)                       : 0.032
Stream size                              : 35.7 MiB (92%)
Title                                    : [HIKKIBOY] Obake Zukan Episode 05
Language                                 : Japanese
Default                                  : Yes
Forced                                   : No
Color range                              : Limited
Color primaries                          : BT.709
Transfer characteristics                 : BT.709
Matrix coefficients                      : BT.709

Audio
ID                                       : 2
Format                                   : AAC LC
Format/Info                              : Advanced Audio Codec Low Complexity
Codec ID                                 : A_AAC-2
Duration                                 : 2 min 30 s
Bit rate                                 : 128 kb/s
Channel(s)                               : 2 channels
Channel layout                           : L R
Sampling rate                            : 44.1 kHz
Frame rate                               : 43.066 FPS (1024 SPF)
Compression mode                         : Lossy
Stream size                              : 2.29 MiB (6%)
Title                                    : JP
Language                                 : Japanese
Default                                  : Yes
Forced                                   : No

Text #1
ID                                       : 3
Format                                   : ASS
Codec ID                                 : S_TEXT/ASS
Codec ID/Info                            : Advanced Sub Station Alpha
Duration                                 : 2 min 28 s
Bit rate                                 : 170 b/s
Count of elements                        : 54
Compression mode                         : Lossless
Stream size                              : 3.10 KiB (0%)
Title                                    : HIKKIBOY subs
Language                                 : English
Default                                  : Yes
Forced                                   : No

Text #2
ID                                       : 4
Format                                   : ASS
Codec ID                                 : S_TEXT/ASS
Codec ID/Info                            : Advanced Sub Station Alpha
Duration                                 : 2 min 28 s
Bit rate                                 : 148 b/s
Count of elements                        : 53
Compression mode                         : Lossless
Stream size                              : 2.69 KiB (0%)
Title                                    : POSTBOY meme subs
Language                                 : English
Default                                  : No
Forced                                   : No
beta
Anime DDL+NZB mirror
Current Time: 27/02/2021 03:29



About/FAQs