File Size338.9 MB (355,399,329 bytes)
DownloadGo4Up | Jheberg | MultiUp | SolidFiles | UsersFiles
Sendspace: Part1, Part2
ShareBeast: Part1, Part2
Encrypted DownloadDirect
Password:
HashesCRC32: 8E5CA65F, MD5: 66CCF793C0851CA41D11781E1CA81755, SHA1: 5746DE4D0DA908B587D1F9D378C7E170E49A927F, SHA256: 18F4C78E3A29DB3243D5176C55396BC1082B4B9C27978CB2F25B9AA6F14C88C2, ED2K: B1BF489226C78F180E868779045A95DE
Screenshots
screenshotscreenshotscreenshotscreenshotscreenshot
SubtitlesAll Attachments | WinD Subtitles (w/karaoke) [eng, ASS], WinD Subtitles (no karaoke) [eng, ASS]
Additional Info
General
Unique ID                                : 199808812539944865256382108357316379666 (0x9651C70BB3CCABCDA7FCAF448E2D0412)
Complete name                            : 1. Embarrassment.mkv
Format                                   : Matroska
Format version                           : Version 2
File size                                : 339 MiB
Duration                                 : 29mn 39s
Overall bit rate mode                    : Variable
Overall bit rate                         : 1 598 Kbps
Encoded date                             : UTC 2009-06-29 04:17:20
Writing application                      : mkvmerge v2.9.5 ('Tu es le seul') built on Jun  7 2009 11:07:07
Writing library                          : libebml v0.7.7 + libmatroska v0.8.1
Attachements                             : FREESCPT.TTF / GosmickSans.ttf / Primus_SF.ttf / tahoma.ttf / verdana.ttf / arial.ttf / BGREIRR.TTF / DFPXingShu-B5-subset.ttf

Video
ID                                       : 1
Format                                   : AVC
Format/Info                              : Advanced Video Codec
Format profile                           : High@L4.0
Format settings, CABAC                   : Yes
Format settings, ReFrames                : 8 frames
Codec ID                                 : V_MPEG4/ISO/AVC
Duration                                 : 29mn 39s
Bit rate                                 : 1 500 Kbps
Width                                    : 1 280 pixels
Height                                   : 720 pixels
Display aspect ratio                     : 16:9
Frame rate mode                          : Constant
Frame rate                               : 23.976 fps
Color space                              : YUV
Chroma subsampling                       : 4:2:0
Bit depth                                : 8 bits
Scan type                                : Progressive
Bits/(Pixel*Frame)                       : 0.068
Stream size                              : 305 MiB (90%)
Writing library                          : x264 core 67 r1165M 6841c5e
Encoding settings                        : cabac=1 / ref=8 / deblock=1:-1:-1 / analyse=0x3:0x133 / me=umh / subme=7 / psy_rd=0.8:0.2 / mixed_ref=1 / me_range=16 / chroma_me=1 / trellis=2 / 8x8dct=1 / cqm=0 / deadzone=21,11 / chroma_qp_offset=-3 / threads=3 / nr=0 / decimate=1 / mbaff=0 / bframes=16 / b_pyramid=1 / b_adapt=1 / b_bias=0 / direct=3 / wpredb=0 / keyint=250 / keyint_min=25 / scenecut=40 / rc=2pass / bitrate=1500 / ratetol=1.0 / qcomp=0.60 / qpmin=10 / qpmax=51 / qpstep=4 / cplxblur=20.0 / qblur=0.5 / ip_ratio=1.40 / pb_ratio=1.30 / aq=1:0.60
Default                                  : Yes
Forced                                   : No

Audio
ID                                       : 2
Format                                   : Vorbis
Format settings, Floor                   : 1
Codec ID                                 : A_VORBIS
Duration                                 : 29mn 39s
Bit rate mode                            : Variable
Bit rate                                 : 128 Kbps
Channel(s)                               : 2 channels
Sampling rate                            : 48.0 KHz
Compression mode                         : Lossy
Stream size                              : 27.2 MiB (8%)
Writing library                          : aoTuV b5c  (UTC 2008-12-15)
Language                                 : Japanese
Default                                  : Yes
Forced                                   : No

Text #1
ID                                       : 3
Format                                   : ASS
Codec ID                                 : S_TEXT/ASS
Codec ID/Info                            : Advanced Sub Station Alpha
Compression mode                         : Lossless
Title                                    : WinD Subtitles (w/karaoke)
Language                                 : English
Default                                  : Yes
Forced                                   : No

Text #2
ID                                       : 4
Format                                   : ASS
Codec ID                                 : S_TEXT/ASS
Codec ID/Info                            : Advanced Sub Station Alpha
Compression mode                         : Lossless
Title                                    : WinD Subtitles (no karaoke)
Language                                 : English
Default                                  : No
Forced                                   : No

Menu
00:00:00.000                             : en:Intro
00:03:28.000                             : en:Opening
00:05:00.933                             : en:Part A
00:11:17.267                             : en:Part B
00:27:24.000                             : en:Ending
00:28:56.500                             : en:Preview

Other Files in this Torrent
Higurashi no Naku Koro ni Rei (2009)/1. Embarrassment.mkv
beta
Anime DDL+NZB mirror
Current Time: 07/04/2020 06:07



About/FAQs