File Size278.8 MB (292,392,133 bytes)
DownloadGo4Up | Jheberg | MultiUp | Sendspace | SolidFiles | UsersFiles
ShareBeast: Part1, Part2
Encrypted DownloadDirect
Password:
HashesCRC32: ED886C97, MD5: 9CB7114133488BC3FF907789F96C2D0F, SHA1: 32E2BCE88EA02ADEC3BDC41A67FA3C2EF3F475E1, SHA256: 69B615A417DDE8C210EA71B5D9E196E7505A40A0262F11E7F8864559F5293C7A, ED2K: 9F8414C059DCD7098BC2B1988E5E73E1
Screenshots
screenshotscreenshotscreenshotscreenshotscreenshot
SubtitlesAll Attachments | English Subs [eng, ASS]
Additional Info
General
Unique ID                                : 245604788585529110302999756631520164139 (0xB8C5C2FD9A66D43792E8E97DFD51B92B)
Complete name                            : 20. Trap.mkv
Format                                   : Matroska
Format version                           : Version 2
File size                                : 279 MiB
Duration                                 : 24mn 22s
Overall bit rate mode                    : Variable
Overall bit rate                         : 1 600 Kbps
Movie name                               : 祭囃し編·其の七『トラップ』
Encoded date                             : UTC 2012-11-25 01:51:56
Writing application                      : mkvmerge v5.8.0 ('No Sleep / Pillow') built on Sep  2 2012 15:37:04
Writing library                          : libebml v1.2.3 + libmatroska v1.3.0
Attachements                             : eng sub [Hauu~]/arial.ttf / eng sub [Hauu~]/Beryliub.ttf / eng sub [Hauu~]/chaparralpro_regular.otf / eng sub [Hauu~]/ChaparralPro_Semibold.otf / eng sub [Hauu~]/GIL_____.ttf / eng sub [Hauu~]/JAPAB___.ttf / eng sub [Hauu~]/YanoneTagesschrift.ttf

Video
ID                                       : 1
Format                                   : AVC
Format/Info                              : Advanced Video Codec
Format profile                           : High 10@L3.2
Format settings, CABAC                   : Yes
Format settings, ReFrames                : 8 frames
Muxing mode                              : Header stripping
Codec ID                                 : V_MPEG4/ISO/AVC
Duration                                 : 24mn 22s
Bit rate                                 : 1 312 Kbps
Width                                    : 1 024 pixels
Height                                   : 576 pixels
Display aspect ratio                     : 16:9
Frame rate mode                          : Constant
Frame rate                               : 23.976 fps
Color space                              : YUV
Chroma subsampling                       : 4:2:0
Bit depth                                : 10 bits
Scan type                                : Progressive
Bits/(Pixel*Frame)                       : 0.093
Stream size                              : 229 MiB (82%)
Writing library                          : x264 core 122 r2184 5c85e0a
Encoding settings                        : cabac=1 / ref=8 / deblock=1:-2:-2 / analyse=0x3:0x113 / me=umh / subme=9 / psy=1 / psy_rd=0.95:0.00 / mixed_ref=1 / me_range=16 / chroma_me=1 / trellis=2 / 8x8dct=1 / cqm=0 / deadzone=21,11 / fast_pskip=1 / chroma_qp_offset=-2 / threads=3 / sliced_threads=0 / nr=0 / decimate=0 / interlaced=0 / bluray_compat=0 / constrained_intra=0 / bframes=8 / b_pyramid=2 / b_adapt=2 / b_bias=0 / direct=1 / weightb=1 / open_gop=0 / weightp=2 / keyint=250 / keyint_min=23 / scenecut=40 / intra_refresh=0 / rc=crf / mbtree=0 / crf=16.0 / qcomp=0.75 / qpmin=8 / qpmax=38 / qpstep=4 / ip_ratio=1.40 / pb_ratio=1.30 / aq=1:0.90
Default                                  : Yes
Forced                                   : No
Matrix coefficients                      : BT.601
Color range                              : Limited

Audio
ID                                       : 2
Format                                   : Vorbis
Format settings, Floor                   : 1
Codec ID                                 : A_VORBIS
Duration                                 : 24mn 22s
Bit rate mode                            : Variable
Bit rate                                 : 256 Kbps
Channel(s)                               : 2 channels
Sampling rate                            : 48.0 KHz
Compression mode                         : Lossy
Stream size                              : 44.6 MiB (16%)
Title                                    : Vorbis q8
Writing library                          : aoTuV 20110424 (UTC 2011-04-24)
Language                                 : Japanese
Default                                  : Yes
Forced                                   : No

Text
ID                                       : 3
Format                                   : ASS
Codec ID                                 : S_TEXT/ASS
Codec ID/Info                            : Advanced Sub Station Alpha
Compression mode                         : Lossless
Title                                    : English Subs
Language                                 : English
Default                                  : Yes
Forced                                   : No

Menu
00:00:00.000                             : :Title
00:00:04.880                             : :OP
00:01:35.846                             : :Part A
00:13:24.846                             : :Part B
00:21:27.828                             : :ED
00:22:57.751                             : :Part C
00:23:40.878                             : :Preview

Other Files in this Torrent
Higurashi no Naku Koro ni Kai/20. Trap.mkv
beta
Anime DDL+NZB mirror
Current Time: 07/04/2020 06:46



About/FAQs