[Hentai-Subs] Dokyuu Hentai HxEros 02 (BDRip 1920x1080 x264 FLAC).mkv


File Size874.0 MB (916,475,466 bytes)
DownloadAnonFiles | ClickNUpload | DropAPK | Free
MultiUp: Part1
  • BdUpload
  • DownAce
  • Fichier
  • FileCloud
  • Filerio
  • FilesCdn
  • IndiShare
  • Kbagi
  • Turbobit
  • UpToBox
  • Uppit
, Part2
  • BdUpload
  • DownAce
  • Fichier
  • FileCloud
  • Filerio
  • FilesCdn
  • IndiShare
  • Kbagi
  • Turbobit
  • UpToBox
  • Uppit

Sendspace: Part1, Part2, Part3
ZippyShare: Part1, Part2
HashesCRC32: A2F98CC7, MD5: A8BB56F6318E9A644B4E39528B26AA7F, SHA1: 4BA1C84E10052217FCA11E60D699C8096C9B491F, SHA256: 1FE02B6EB0EBB1D62F9D8AA5EE9D96F2F6575E73D5FAFE6DE5E82B4C75BC54E4, ED2K: 1BF567110EFF8652003341231F08C20F
Screenshots
screenshotscreenshotscreenshotscreenshotscreenshot
SubtitlesAll Attachments | und [ASS], und [ASS]
Additional Info
General
Unique ID                                : 129771416802714262489639794990829970221 (0x61A110D54AF773A996F2183BF542A32D)
Complete name                            : [Hentai-Subs] Dokyuu Hentai HxEros 02 (BDRip 1920x1080 x264 FLAC).mkv
Format                                   : Matroska
Format version                           : Version 4
File size                                : 874 MiB
Duration                                 : 23 min 41 s
Overall bit rate mode                    : Variable
Overall bit rate                         : 5 159 kb/s
Encoded date                             : UTC 2020-10-08 10:19:56
Writing application                      : mkvmerge v43.0.0 ('The Quartermaster') 64-bit
Writing library                          : libebml v1.3.10 + libmatroska v1.5.2

Video
ID                                       : 1
Format                                   : AVC
Format/Info                              : Advanced Video Codec
Format profile                           : High@L4
Format settings                          : CABAC / 4 Ref Frames
Format settings, CABAC                   : Yes
Format settings, ReFrames                : 4 frames
Codec ID                                 : V_MPEG4/ISO/AVC
Duration                                 : 23 min 41 s
Bit rate                                 : 3 657 kb/s
Width                                    : 1 920 pixels
Height                                   : 1 080 pixels
Display aspect ratio                     : 16:9
Frame rate mode                          : Constant
Frame rate                               : 23.976 (24000/1001) FPS
Color space                              : YUV
Chroma subsampling                       : 4:2:0
Bit depth                                : 8 bits
Scan type                                : Progressive
Bits/(Pixel*Frame)                       : 0.074
Stream size                              : 620 MiB (71%)
Writing library                          : x264 core 157
Encoding settings                        : opencl=1 / cabac=1 / ref=4 / deblock=1:-2:-2 / analyse=0x3:0x113 / me=umh / subme=9 / psy=1 / psy_rd=0.70:0.00 / mixed_ref=0 / me_range=32 / chroma_me=1 / trellis=2 / 8x8dct=1 / cqm=0 / deadzone=21,11 / fast_pskip=1 / chroma_qp_offset=-2 / threads=8 / lookahead_threads=1 / sliced_threads=0 / nr=0 / decimate=1 / interlaced=0 / bluray_compat=0 / constrained_intra=0 / bframes=9 / b_pyramid=2 / b_adapt=2 / b_bias=0 / direct=3 / weightb=1 / open_gop=0 / weightp=2 / keyint=250 / keyint_min=23 / scenecut=40 / intra_refresh=0 / rc_lookahead=40 / rc=crf / mbtree=1 / crf=16.0 / qcomp=0.70 / qpmin=10 / qpmax=20 / qpstep=4 / ip_ratio=1.40 / aq=1:1.00
Default                                  : Yes
Forced                                   : No

Audio
ID                                       : 2
Format                                   : FLAC
Format/Info                              : Free Lossless Audio Codec
Codec ID                                 : A_FLAC
Duration                                 : 23 min 41 s
Bit rate mode                            : Variable
Bit rate                                 : 1 500 kb/s
Channel(s)                               : 2 channels
Channel layout                           : L R
Sampling rate                            : 48.0 kHz
Frame rate                               : 10.417 FPS (4608 SPF)
Bit depth                                : 24 bits
Compression mode                         : Lossless
Stream size                              : 254 MiB (29%)
Writing library                          : Lavf58.45.100
Language                                 : Japanese
Default                                  : Yes
Forced                                   : No

Text #1
ID                                       : 3
Format                                   : ASS
Codec ID                                 : S_TEXT/ASS
Codec ID/Info                            : Advanced Sub Station Alpha
Duration                                 : 23 min 36 s
Bit rate                                 : 91 b/s
Count of elements                        : 296
Compression mode                         : Lossless
Stream size                              : 15.8 KiB (0%)
Default                                  : Yes
Forced                                   : No

Text #2
ID                                       : 4
Format                                   : ASS
Codec ID                                 : S_TEXT/ASS
Codec ID/Info                            : Advanced Sub Station Alpha
Duration                                 : 23 min 36 s
Bit rate                                 : 93 b/s
Count of elements                        : 298
Compression mode                         : Lossless
Stream size                              : 16.2 KiB (0%)
Default                                  : No
Forced                                   : No
beta
Anime DDL+NZB mirror
Current Time: 20/04/2021 14:14



About/FAQs