Helck - S01E01 - DUAL 720p WEB H.264 -NanDesuKa (HIDIVE).mkv


File Size499.6 MB (523,825,834 bytes)
DownloadClickNUpload | DailyUploads | DownloadGG | GoFile | KrakenFiles | MdiaLoad | MultiUp
  • BdUpload
  • DownAce
  • Fichier
  • FileCloud
  • Filerio
  • FilesCdn
  • IndiShare
  • Kbagi
  • Turbobit
  • UpToBox
  • Uppit
| Uppit
HashesCRC32: EFF69531, MD5: 42DC317CF13963E10A95357F39EFCEE7, SHA1: BB5A6532417222B901EA3A2FDCD389B13886C19D, SHA256: 52F7A97042B49811945BFEA47DA36A8400689D8B4C99963537E153E8573365D4, ED2K: 7FD8BE9544DA40412066CF98CE63EB1B
Screenshots
screenshotscreenshotscreenshotscreenshotscreenshot
SubtitlesAll Attachments | eng [ASS], Mexican [spa, ASS]
Additional Info
General
Unique ID                                : 209235770289239103564360905114511360203 (0x9D6957F27AD163E7029ABF212DC240CB)
Complete name                            : Helck - S01E01 - DUAL 720p WEB H.264 -NanDesuKa (HIDIVE).mkv
Format                                   : Matroska
Format version                           : Version 4
File size                                : 500 MiB
Duration                                 : 22 min 57 s
Overall bit rate                         : 3 042 kb/s
Frame rate                               : 24.000 FPS
Writing application                      : mkvmerge v83.0 ('Circle Of Friends') 64-bit
Writing library                          : libebml v1.4.5 + libmatroska v1.7.1
Attachments                              : Aldine401 BT / Noto Sans SemBd / Bodoni Bk BT / BakerSignet BT

Video
ID                                       : 1
Format                                   : AVC
Format/Info                              : Advanced Video Codec
Format profile                           : High@L4
Format settings                          : CABAC / 4 Ref Frames
Format settings, CABAC                   : Yes
Format settings, Reference frames        : 4 frames
Codec ID                                 : V_MPEG4/ISO/AVC
Duration                                 : 22 min 57 s
Bit rate                                 : 2 872 kb/s
Width                                    : 1 280 pixels
Height                                   : 720 pixels
Display aspect ratio                     : 16:9
Frame rate mode                          : Constant
Frame rate                               : 24.000 FPS
Color space                              : YUV
Chroma subsampling                       : 4:2:0
Bit depth                                : 8 bits
Scan type                                : Progressive
Bits/(Pixel*Frame)                       : 0.130
Stream size                              : 456 MiB (91%)
Writing library                          : x264 core 164 r3153 5f84d40
Encoding settings                        : cabac=1 / ref=2 / deblock=1:0:0 / analyse=0x3:0x113 / me=hex / subme=6 / psy=1 / psy_rd=1.00:0.00 / mixed_ref=1 / me_range=16 / chroma_me=1 / trellis=1 / 8x8dct=1 / cqm=0 / deadzone=21,11 / fast_pskip=1 / chroma_qp_offset=-2 / threads=22 / lookahead_threads=3 / sliced_threads=0 / nr=0 / decimate=1 / interlaced=0 / bluray_compat=0 / constrained_intra=0 / bframes=2 / b_pyramid=2 / b_adapt=1 / b_bias=0 / direct=1 / weightb=1 / open_gop=0 / weightp=1 / keyint=48 / keyint_min=25 / scenecut=0 / intra_refresh=0 / rc_lookahead=30 / rc=2pass / mbtree=1 / bitrate=2872 / ratetol=1.0 / qcomp=0.60 / qpmin=0 / qpmax=69 / qpstep=4 / cplxblur=20.0 / qblur=0.5 / vbv_maxrate=2872 / vbv_bufsize=5744 / nal_hrd=none / filler=0 / ip_ratio=1.40 / aq=1:1.00
Default                                  : Yes
Forced                                   : No

Audio #1
ID                                       : 2
Format                                   : AAC LC
Format/Info                              : Advanced Audio Codec Low Complexity
Codec ID                                 : A_AAC-2
Duration                                 : 22 min 57 s
Bit rate                                 : 128 kb/s
Channel(s)                               : 2 channels
Channel layout                           : L R
Sampling rate                            : 48.0 kHz
Frame rate                               : 46.875 FPS (1024 SPF)
Compression mode                         : Lossy
Stream size                              : 21.1 MiB (4%)
Language                                 : Japanese
Default                                  : Yes
Forced                                   : No

Audio #2
ID                                       : 3
Format                                   : AAC LC
Format/Info                              : Advanced Audio Codec Low Complexity
Codec ID                                 : A_AAC-2
Duration                                 : 22 min 57 s
Bit rate                                 : 128 kb/s
Channel(s)                               : 2 channels
Channel layout                           : L R
Sampling rate                            : 48.0 kHz
Frame rate                               : 46.875 FPS (1024 SPF)
Compression mode                         : Lossy
Stream size                              : 21.1 MiB (4%)
Language                                 : English
Default                                  : No
Forced                                   : No

Text #1
ID                                       : 4
Format                                   : ASS
Codec ID                                 : S_TEXT/ASS
Codec ID/Info                            : Advanced Sub Station Alpha
Duration                                 : 21 min 52 s
Bit rate                                 : 171 b/s
Frame rate                               : 0.343 FPS
Count of elements                        : 450
Compression mode                         : Lossless
Stream size                              : 27.4 KiB (0%)
Language                                 : English (US)
Default                                  : Yes
Forced                                   : No

Text #2
ID                                       : 5
Format                                   : ASS
Codec ID                                 : S_TEXT/ASS
Codec ID/Info                            : Advanced Sub Station Alpha
Duration                                 : 21 min 52 s
Bit rate                                 : 139 b/s
Frame rate                               : 0.310 FPS
Count of elements                        : 407
Compression mode                         : Lossless
Stream size                              : 22.3 KiB (0%)
Title                                    : Mexican
Language                                 : Spanish (MX)
Default                                  : No
Forced                                   : No
beta
Anime DDL+NZB mirror
Current Time: 28/05/2024 07:21



About/FAQs

Discord