File Size312.4 MB (327,545,053 bytes)
DownloadAnonFiles | EmbedUpload | FileWinds | Jheberg | MirrorStack | MultiUpload
Sendspace: Part1, Part2
ShareBeast: Part1, Part2
HashesCRC32: EBC65904, MD5: 09911B0A5AF95D19E622F207FE34E67B, SHA1: 43DE420F20A1F6E5456F6B80005BBE82DDA6D1CA, SHA256: 7432689749DE255575AED58638AC19D62086DFA72694C7FF2D25969C9B5D1177, ED2K: BA3F336D15CD0E750F87274BC1C7F3F9
Screenshots
screenshotscreenshotscreenshotscreenshotscreenshot
Additional Info
General
Complete name                            : [Hatsuyuki-Tsuki]_Suisei_no_Gargantia_-_11_[720p][EBC65904].mp4
Format                                   : MPEG-4
Format profile                           : Base Media
Codec ID                                 : isom
File size                                : 312 MiB
Duration                                 : 23mn 40s
Overall bit rate mode                    : Variable
Overall bit rate                         : 1 845 Kbps
Encoded date                             : UTC 2013-06-20 11:56:20
Tagged date                              : UTC 2013-06-20 11:56:20

Video
ID                                       : 1
Format                                   : AVC
Format/Info                              : Advanced Video Codec
Format profile                           : High@L4.1
Format settings, CABAC                   : Yes
Format settings, ReFrames                : 9 frames
Codec ID                                 : avc1
Codec ID/Info                            : Advanced Video Coding
Duration                                 : 23mn 39s
Bit rate                                 : 1 650 Kbps
Maximum bit rate                         : 10.9 Mbps
Width                                    : 1 280 pixels
Height                                   : 720 pixels
Display aspect ratio                     : 16:9
Frame rate mode                          : Constant
Frame rate                               : 23.976 fps
Color space                              : YUV
Chroma subsampling                       : 4:2:0
Bit depth                                : 8 bits
Scan type                                : Progressive
Bits/(Pixel*Frame)                       : 0.075
Stream size                              : 279 MiB (89%)
Title                                    : 264#trackID=1:fps=23.976@GPAC0.5.1-DEV-rev4283
Writing library                          : x264 core 129 r2245 bc13772
Encoding settings                        : cabac=1 / ref=9 / deblock=1:0:0 / analyse=0x3:0x133 / me=umh / subme=10 / psy=1 / psy_rd=1.00:0.00 / mixed_ref=1 / me_range=24 / chroma_me=1 / trellis=2 / 8x8dct=1 / cqm=0 / deadzone=21,11 / fast_pskip=1 / chroma_qp_offset=-2 / threads=12 / lookahead_threads=2 / sliced_threads=0 / nr=0 / decimate=1 / interlaced=0 / bluray_compat=0 / constrained_intra=0 / bframes=8 / b_pyramid=2 / b_adapt=2 / b_bias=0 / direct=3 / weightb=1 / open_gop=0 / weightp=2 / keyint=240 / keyint_min=23 / scenecut=40 / intra_refresh=0 / rc_lookahead=60 / rc=crf / mbtree=1 / crf=18.0 / qcomp=0.60 / qpmin=10 / qpmax=69 / qpstep=4 / ip_ratio=1.40 / aq=1:1.00
Encoded date                             : UTC 2013-06-20 11:56:20
Tagged date                              : UTC 2013-06-20 11:58:42
Color primaries                          : BT.709-5, BT.1361, IEC 61966-2-4, SMPTE RP177
Transfer characteristics                 : BT.709-5, BT.1361
Matrix coefficients                      : BT.709-5, BT.1361, IEC 61966-2-4 709, SMPTE RP177

Audio
ID                                       : 2
Format                                   : AAC
Format/Info                              : Advanced Audio Codec
Format profile                           : LC
Codec ID                                 : 40
Duration                                 : 23mn 40s
Bit rate mode                            : Variable
Bit rate                                 : 192 Kbps
Maximum bit rate                         : 223 Kbps
Channel(s)                               : 2 channels
Channel positions                        : Front: L R
Sampling rate                            : 48.0 KHz
Compression mode                         : Lossy
Stream size                              : 32.5 MiB (10%)
Encoded date                             : UTC 2013-06-20 11:23:28
Tagged date                              : UTC 2013-06-20 11:58:42

Menu
00:00:00.000                             : Prologue
00:03:15.946                             : Opening
00:04:45.952                             : Supreme Ruler of Terror Part 1
00:13:03.992                             : Eye Catch
00:13:13.918                             : Supreme Ruler of Terror Part 2
00:22:09.912                             : Ending
beta
Anime DDL+NZB mirror
Current Time: 03/08/2021 18:41



About/FAQs