File Size928.8 MB (973,949,507 bytes)
DownloadClickNUpload | Jheberg | MultiUp
  • ClickNupload
  • Fichier
  • Filerio
  • Free
  • Fufox
  • HugeFiles
  • Mightyupload
  • ToutBox
  • Turbobit
  • UpToBox
  • Uplea
  • UploadBaz
  • Uploadable
  • Uploaded
  • Uppit
  • Userscloud
| OpenLoad
Sendspace: Part1, Part2, Part3, Part4
SolidFiles: Part1, Part2
Encrypted DownloadDirect
Password:
HashesCRC32: EDA8F6C2, MD5: 5380A10BADA33EFF6E2DA7194B071591, SHA1: AEE10D25C241734984E2B0780DC0A11BB73508E9, SHA256: DF3EADC25AE4F23DDBC4F96CCBBE5826BAB462CFE4735EFBD6444674C0543CF8, ED2K: 6B94FAFFCA8A6B218F0E38D9EABA92F5
Screenshots
screenshotscreenshotscreenshotscreenshotscreenshot
SubtitlesAll Attachments | und [ASS]
Additional Info
General
Unique ID                                : 205059609514637051877487446771771359599 (0x9A450B52F9CA237A9F41011516CBC16F)
Complete name                            : [Hatsuyuki-Kaitou]_Strike_the_Blood_II_-_08_[BD_1080p][10bit][FLAC][EDA8F6C2].mkv
Format                                   : Matroska
Format version                           : Version 4 / Version 2
File size                                : 929 MiB
Duration                                 : 26 min 25 s
Overall bit rate mode                    : Variable
Overall bit rate                         : 4 914 kb/s
Encoded date                             : UTC 2017-08-26 22:02:24
Writing application                      : mkvmerge v14.0.0 ('Flow') 32bit
Writing library                          : libebml v1.3.4 + libmatroska v1.4.5
Attachments                              : Architex.ttf / ArchitextBold.ttf / arial.ttf / arialbd.ttf / Beginning_of_Summer.ttf / Chuu2-next.ttf / Laouib.ttf / LT_0.ttf / palr65w.ttf

Video
ID                                       : 1
Format                                   : AVC
Format/Info                              : Advanced Video Codec
Format profile                           : High 10@L5.1
Format settings, CABAC                   : Yes
Format settings, ReFrames                : 16 frames
Codec ID                                 : V_MPEG4/ISO/AVC
Duration                                 : 26 min 25 s
Bit rate                                 : 3 387 kb/s
Width                                    : 1 920 pixels
Height                                   : 1 080 pixels
Display aspect ratio                     : 16:9
Frame rate mode                          : Constant
Frame rate                               : 23.976 (24000/1001) FPS
Color space                              : YUV
Chroma subsampling                       : 4:2:0
Bit depth                                : 10 bits
Scan type                                : Progressive
Bits/(Pixel*Frame)                       : 0.068
Stream size                              : 640 MiB (69%)
Writing library                          : x264 core 142 r2431+42 c69a006 tMod [10-bit@all X86_64]
Encoding settings                        : cabac=1 / ref=16 / deblock=1:0:0 / analyse=0x3:0x133 / me=umh / subme=10 / psy=1 / fade_compensate=0.75 / psy_rd=0.70:0.10 / mixed_ref=1 / me_range=32 / chroma_me=1 / trellis=2 / 8x8dct=1 / cqm=0 / deadzone=21,11 / fast_pskip=1 / chroma_qp_offset=-2 / threads=18 / lookahead_threads=4 / sliced_threads=0 / nr=0 / decimate=1 / interlaced=0 / bluray_compat=0 / constrained_intra=0 / fgo=0 / bframes=16 / b_pyramid=2 / b_adapt=2 / b_bias=0 / direct=3 / weightb=1 / open_gop=0 / weightp=2 / keyint=240 / keyint_min=23 / scenecut=40 / intra_refresh=0 / rc_lookahead=60 / rc=crf / mbtree=1 / crf=16.5000 / qcomp=0.75 / qpmin=0:0:0 / qpmax=81:81:81 / qpstep=4 / ip_ratio=1.40 / aq=3:0.85 / aq-sensitivity=10.00 / aq-factor=1.00:1.00:1.00 / aq2=0 / aq3=0
Language                                 : English
Default                                  : Yes
Forced                                   : No
Color range                              : Limited
Color primaries                          : BT.709
Transfer characteristics                 : BT.709
Matrix coefficients                      : BT.709

Audio
ID                                       : 2
Format                                   : FLAC
Format/Info                              : Free Lossless Audio Codec
Codec ID                                 : A_FLAC
Duration                                 : 26 min 25 s
Bit rate mode                            : Variable
Bit rate                                 : 1 490 kb/s
Channel(s)                               : 2 channels
Channel positions                        : Front: L R
Sampling rate                            : 48.0 kHz
Frame rate                               : 11.719 FPS (4096 spf)
Bit depth                                : 24 bits
Stream size                              : 282 MiB (30%)
Writing library                          : libFLAC 1.3.2 (UTC 2017-01-01)
Default                                  : Yes
Forced                                   : No

Text
ID                                       : 3
Format                                   : ASS
Codec ID                                 : S_TEXT/ASS
Codec ID/Info                            : Advanced Sub Station Alpha
Duration                                 : 26 min 13 s
Bit rate                                 : 23.5 kb/s
Count of elements                        : 6772
Compression mode                         : Lossless
Stream size                              : 4.41 MiB (0%)
Default                                  : Yes
Forced                                   : No

Menu
00:00:00.000                             : en:Prologue
00:00:47.047                             : en:Opening
00:02:17.012                             : en:Part_A
00:10:41.057                             : en:Part_B
00:23:35.664                             : en:Ending
00:25:05.629                             : en:Epilogue
beta
Anime DDL+NZB mirror
Current Time: 19/11/2019 00:28



About/FAQs