File Size334.9 MB (351,167,585 bytes)
DownloadAnonFiles | EmbedUpload | FileWinds | Jheberg | MirrorStack | MultiUpload
Sendspace: Part1, Part2
ShareBeast: Part1, Part2
HashesCRC32: 4CAD2838, MD5: CFB5476FF865AA13E61C8553C3B1C5CF, SHA1: C9D947DB900D7485287EF8B79C737B8F77A108CF, SHA256: 9051FEC2E60EA86D83FFD2F13FC04B3EEDC07CEB7754572E4117D114A8F400FE, ED2K: D98EB07D7A9D93BB5A5CB1FF301F875C
Screenshots
screenshotscreenshotscreenshotscreenshotscreenshot
Additional Info
General
Complete name                            : [Hatsuyuki]_Hyakka_Ryouran_Samurai_Bride_-_08_[720p][4CAD2838].mp4
Format                                   : MPEG-4
Format profile                           : Base Media
Codec ID                                 : isom
File size                                : 335 MiB
Duration                                 : 23mn 39s
Overall bit rate mode                    : Variable
Overall bit rate                         : 1 978 Kbps
Encoded date                             : UTC 2013-06-09 18:08:45
Tagged date                              : UTC 2013-06-09 18:08:45

Video
ID                                       : 1
Format                                   : AVC
Format/Info                              : Advanced Video Codec
Format profile                           : High@L4.1
Format settings, CABAC                   : Yes
Format settings, ReFrames                : 9 frames
Codec ID                                 : avc1
Codec ID/Info                            : Advanced Video Coding
Duration                                 : 23mn 39s
Bit rate                                 : 1 783 Kbps
Maximum bit rate                         : 9 155 Kbps
Width                                    : 1 280 pixels
Height                                   : 720 pixels
Display aspect ratio                     : 16:9
Frame rate mode                          : Constant
Frame rate                               : 23.976 fps
Color space                              : YUV
Chroma subsampling                       : 4:2:0
Bit depth                                : 8 bits
Scan type                                : Progressive
Bits/(Pixel*Frame)                       : 0.081
Stream size                              : 302 MiB (90%)
Title                                    : 264#trackID=1:fps=23.976@GPAC0.5.1-DEV-rev4283
Writing library                          : x264 core 129 r2245 bc13772
Encoding settings                        : cabac=1 / ref=9 / deblock=1:0:0 / analyse=0x3:0x133 / me=umh / subme=10 / psy=1 / psy_rd=1.00:0.00 / mixed_ref=1 / me_range=24 / chroma_me=1 / trellis=2 / 8x8dct=1 / cqm=0 / deadzone=21,11 / fast_pskip=1 / chroma_qp_offset=-2 / threads=12 / lookahead_threads=2 / sliced_threads=0 / nr=0 / decimate=1 / interlaced=0 / bluray_compat=0 / constrained_intra=0 / bframes=8 / b_pyramid=2 / b_adapt=2 / b_bias=0 / direct=3 / weightb=1 / open_gop=0 / weightp=2 / keyint=240 / keyint_min=23 / scenecut=40 / intra_refresh=0 / rc_lookahead=60 / rc=crf / mbtree=1 / crf=18.0 / qcomp=0.60 / qpmin=10 / qpmax=69 / qpstep=4 / ip_ratio=1.40 / aq=1:1.00
Encoded date                             : UTC 2013-06-09 18:08:45
Tagged date                              : UTC 2013-06-09 18:09:54

Audio
ID                                       : 2
Format                                   : AAC
Format/Info                              : Advanced Audio Codec
Format profile                           : LC
Codec ID                                 : 40
Duration                                 : 23mn 39s
Bit rate mode                            : Variable
Bit rate                                 : 192 Kbps
Maximum bit rate                         : 227 Kbps
Channel(s)                               : 2 channels
Channel positions                        : Front: L R
Sampling rate                            : 48.0 KHz
Compression mode                         : Lossy
Stream size                              : 32.5 MiB (10%)
Encoded date                             : UTC 2013-06-09 17:27:20
Tagged date                              : UTC 2013-06-09 18:09:54

Menu
00:00:00.000                             : Opening
00:01:30.048                             : Main_Dialogue
00:21:40.089                             : Ending
00:23:10.012                             : Preview
beta
Anime DDL+NZB mirror
Current Time: 27/10/2021 03:35



About/FAQs

Discord