[HappySubs] Josee, the Tiger and the Fish (BD Release).mkv


File Size3.041 GB (3,265,211,903 bytes)
DownloadDownloadGG: Part1, Part2, Part3, Part4
DropAPK: Part1, Part2
MultiUp: Part1
  • BdUpload
  • DownAce
  • Fichier
  • FileCloud
  • Filerio
  • FilesCdn
  • IndiShare
  • Kbagi
  • Turbobit
  • UpToBox
  • Uppit
, Part2
  • BdUpload
  • DownAce
  • Fichier
  • FileCloud
  • Filerio
  • FilesCdn
  • IndiShare
  • Kbagi
  • Turbobit
  • UpToBox
  • Uppit
, Part3
  • BdUpload
  • DownAce
  • Fichier
  • FileCloud
  • Filerio
  • FilesCdn
  • IndiShare
  • Kbagi
  • Turbobit
  • UpToBox
  • Uppit
, Part4
  • BdUpload
  • DownAce
  • Fichier
  • FileCloud
  • Filerio
  • FilesCdn
  • IndiShare
  • Kbagi
  • Turbobit
  • UpToBox
  • Uppit
, Part5
  • BdUpload
  • DownAce
  • Fichier
  • FileCloud
  • Filerio
  • FilesCdn
  • IndiShare
  • Kbagi
  • Turbobit
  • UpToBox
  • Uppit
, Part6
  • BdUpload
  • DownAce
  • Fichier
  • FileCloud
  • Filerio
  • FilesCdn
  • IndiShare
  • Kbagi
  • Turbobit
  • UpToBox
  • Uppit
, Part7
  • BdUpload
  • DownAce
  • Fichier
  • FileCloud
  • Filerio
  • FilesCdn
  • IndiShare
  • Kbagi
  • Turbobit
  • UpToBox
  • Uppit

SolidFiles: Part1, Part2, Part3, Part4, Part5, Part6, Part7
ZippyShare: Part1, Part2, Part3, Part4, Part5, Part6, Part7
HashesCRC32: 80752FEC, MD5: 4E8F3BBD83C22830F4CF4E7642D2C5A2, SHA1: 3953CC522BD381DBF0EAB4D2D8A0AF93BB468096, SHA256: 9EEB3A120A18B1368689576EE30F901B306EE5186809EB2C6E0A0A6302BFF85B, ED2K: 1BD1F01DA770E1667F75FB33F153AC90
Screenshots
screenshotscreenshotscreenshotscreenshotscreenshot
SubtitlesAll Attachments | English Full [und, ASS]
Additional Info
General
Unique ID                                : 204201354637203298381081446311955705787 (0x999FC017769FDCD8D9E55E34F576AFBB)
Complete name                            : [HappySubs] Josee, the Tiger and the Fish (BD Release).mkv
Format                                   : Matroska
Format version                           : Version 4
File size                                : 3.04 GiB
Duration                                 : 1 h 38 min
Overall bit rate                         : 4 434 kb/s
Encoded date                             : UTC 2021-08-30 13:13:38
Writing application                      : mkvmerge v60.0.0 ('Are We Copies?') 64-bit
Writing library                          : libebml v1.4.2 + libmatroska v1.6.4
Attachments                              : Bahij Nassim-Regular-v2.ttf / Bahij Roya-Bold.ttf / Hacen Tunisia.ttf / lahb-arphotoshop-bold.ttf / msuighub.ttf / ae_Petra.ttf / Bahij Aban-Bold.ttf / Bahij Nassim-Bold العادي.ttf / Bahij Nassim-Bold-v2.ttf

Video
ID                                       : 1
Format                                   : HEVC
Format/Info                              : High Efficiency Video Coding
Format profile                           : Main 10@L4@Main
Codec ID                                 : V_MPEGH/ISO/HEVC
Duration                                 : 1 h 38 min
Bit rate                                 : 3 789 kb/s
Width                                    : 1 920 pixels
Height                                   : 1 080 pixels
Display aspect ratio                     : 16:9
Frame rate mode                          : Constant
Frame rate                               : 23.976 (24000/1001) FPS
Color space                              : YUV
Chroma subsampling                       : 4:2:0
Bit depth                                : 10 bits
Bits/(Pixel*Frame)                       : 0.076
Stream size                              : 2.60 GiB (85%)
Default                                  : Yes
Forced                                   : No

Audio
ID                                       : 2
Format                                   : AC-3
Format/Info                              : Audio Coding 3
Commercial name                          : Dolby Digital
Codec ID                                 : A_AC3
Duration                                 : 1 h 38 min
Bit rate mode                            : Constant
Bit rate                                 : 640 kb/s
Channel(s)                               : 6 channels
Channel layout                           : L R C LFE Ls Rs
Sampling rate                            : 48.0 kHz
Frame rate                               : 31.250 FPS (1536 SPF)
Bit depth                                : 16 bits
Compression mode                         : Lossy
Stream size                              : 449 MiB (14%)
Language                                 : Japanese
Service kind                             : Complete Main
Default                                  : Yes
Forced                                   : No

Text
ID                                       : 3
Format                                   : ASS
Codec ID                                 : S_TEXT/ASS
Codec ID/Info                            : Advanced Sub Station Alpha
Duration                                 : 1 h 37 min
Bit rate                                 : 77 b/s
Count of elements                        : 1118
Compression mode                         : Lossless
Stream size                              : 54.9 KiB (0%)
Title                                    : English Full
Default                                  : Yes
Forced                                   : No

Menu
00:00:00.000                             : Chapter 01
00:02:25.520                             : Chapter 02
00:14:01.674                             : Chapter 03
00:26:55.322                             : Chapter 04
00:38:08.327                             : Chapter 05
00:48:01.461                             : Chapter 06
01:00:20.116                             : Chapter 07
01:12:06.989                             : Chapter 08
01:21:10.699                             : Chapter 09
01:32:32.338                             : Chapter 10
01:37:18.624                             : Chapter 11
beta
Anime DDL+NZB mirror
Current Time: 09/08/2022 02:37



About/FAQs

Discord