File Size373.2 MB (391,285,719 bytes)
DownloadClickNUpload | Jheberg | MultiUp
  • BdUpload
  • DownAce
  • Fichier
  • FileCloud
  • Filerio
  • FilesCdn
  • IndiShare
  • Kbagi
  • Turbobit
  • UpToBox
  • Uppit
| OpenLoad | SolidFiles | ZippyShare
Sendspace: Part1, Part2
HashesCRC32: 0112944F, MD5: 4294907E089723655B74FFD48AB25354, SHA1: 10C8414F4643D64D7AF6B11400460DC1640A1FF2, SHA256: 73F8733B1C4AF3E06D1F90146CEBF0F1DFCD0296B780EB97814F9CC4C769DA8B, ED2K: 5C8484996C9877D308C5B68DBE0A672F
Screenshots
screenshotscreenshotscreenshotscreenshotscreenshot
SubtitlesAll Attachments | English [Forced] [eng, ASS], English [Full] [eng, ASS], Castilian [Forced] [spa, ASS], Castilian [Full] [spa, ASS], Spanish [Forced] [spa, ASS], Spanish [Full] [spa, ASS], French [Forced] [fre, ASS], French [Full] [fre, ASS], German [Forced] [ger, ASS], German [Full] [ger, ASS], Italian [Forced] [ita, ASS], Italian [Full] [ita, ASS], Portuguese [Full] [por, ASS], Brazilian Portuguese [Forced] [por, ASS], Brazilian Portuguese [Full] [por, ASS], Polish [Full] [pol, ASS], Turkish [Full] [tur, ASS], Swedish [Full] [swe, ASS], Danish [Full] [dan, ASS], Finnish [Full] [fin, ASS], Dutch [Full] [dut, ASS], Norwegian [Full] [nor, ASS], Russian [Full] [rus, ASS], Hungarian [Full] [hun, ASS], Greek [Full] [gre, ASS], Hebrew [Full] [heb, ASS], Arabic [Full] [ara, ASS], Romanian [Full] [rum, ASS], Czech [Full] [cze, ASS], Indonesian [Full] [ind, ASS], Vietnamese [Full] [vie, ASS], Thai [Full] [tha, ASS], Korean [Full] [kor, ASS], Chinese (Simplified) [Full] [chi, ASS], Chinese (Traditional) [Full] [chi, ASS], Japanese (SDH) [jpn, ASS]
Additional Info
General
Unique ID                                : 225805285697590407144142841441392323012 (0xA9E0842143F4408506F5E6F3CC04E9C4)
Complete name                            : [Hakata Ramen] Carole & Tuesday - 10.mkv
Format                                   : Matroska
Format version                           : Version 4
File size                                : 373 MiB
Duration                                 : 23 min 45 s
Overall bit rate                         : 2 195 kb/s
Encoded date                             : UTC 2019-09-01 07:01:32
Writing application                      : mkvmerge v37.0.0 ('Leave It') 64-bit
Writing library                          : libebml v1.3.9 + libmatroska v1.5.2 / Lavf58.20.100

Video
ID                                       : 1
Format                                   : HEVC
Format/Info                              : High Efficiency Video Coding
Format profile                           : Main 10@L4@Main
Codec ID                                 : V_MPEGH/ISO/HEVC
Duration                                 : 23 min 45 s
Bit rate                                 : 1 320 kb/s
Width                                    : 1 920 pixels
Height                                   : 1 080 pixels
Display aspect ratio                     : 16:9
Frame rate mode                          : Constant
Frame rate                               : 23.976 (24000/1001) FPS
Color space                              : YUV
Chroma subsampling                       : 4:2:0
Bit depth                                : 10 bits
Bits/(Pixel*Frame)                       : 0.027
Stream size                              : 224 MiB (60%)
Writing library                          : x265 2.9:[Windows][GCC 8.2.0][64 bit] 10bit
Encoding settings                        : cpuid=1111039 / frame-threads=3 / numa-pools=8 / wpp / no-pmode / no-pme / no-psnr / no-ssim / log-level=2 / input-csp=1 / input-res=1920x1080 / interlace=0 / total-frames=0 / level-idc=0 / high-tier=1 / uhd-bd=0 / ref=3 / no-allow-non-conformance / no-repeat-headers / annexb / no-aud / no-hrd / info / hash=0 / no-temporal-layers / open-gop / min-keyint=24 / keyint=240 / gop-lookahead=0 / bframes=4 / b-adapt=2 / b-pyramid / bframe-bias=0 / rc-lookahead=20 / lookahead-slices=6 / scenecut=40 / radl=0 / no-intra-refresh / ctu=64 / min-cu-size=8 / no-rect / no-amp / max-tu-size=32 / tu-inter-depth=1 / tu-intra-depth=1 / limit-tu=0 / rdoq-level=0 / dynamic-rd=0.00 / no-ssim-rd / signhide / no-tskip / nr-intra=0 / nr-inter=0 / no-constrained-intra / strong-intra-smoothing / max-merge=2 / limit-refs=3 / no-limit-modes / me=1 / subme=2 / merange=57 / temporal-mvp / weightp / no-weightb / no-analyze-src-pics / deblock=0:0 / sao / no-sao-non-deblock / rd=3 / no-early-skip / rskip / no-fast-intra / no-tskip-fast / no-cu-lossless / no-b-intra / no-splitrd-skip / rdpenalty=0 / psy-rd=2.00 / psy-rdoq=0.00 / no-rd-refine / no-lossless / cbqpoffs=0 / crqpoffs=0 / rc=crf / crf=24.0 / qcomp=0.60 / qpstep=4 / stats-write=0 / stats-read=0 / ipratio=1.40 / pbratio=1.30 / aq-mode=1 / aq-strength=1.00 / cutree / zone-count=0 / no-strict-cbr / qg-size=32 / no-rc-grain / qpmax=69 / qpmin=0 / no-const-vbv / sar=1 / overscan=0 / videoformat=5 / range=0 / colorprim=1 / transfer=1 / colormatrix=1 / chromaloc=0 / display-window=0 / max-cll=0,0 / min-luma=0 / max-luma=1023 / log2-max-poc-lsb=8 / vui-timing-info / vui-hrd-info / slices=1 / no-opt-qp-pps / no-opt-ref-list-length-pps / no-multi-pass-opt-rps / scenecut-bias=0.05 / no-opt-cu-delta-qp / no-aq-motion / no-hdr / no-hdr-opt / no-dhdr10-opt / no-idr-recovery-sei / analysis-reuse-level=5 / scale-factor=0 / refine-intra=0 / refine-inter=0 / refine-mv=0 / no-limit-sao / ctu-info=0 / no-lowpass-dct / refine-mv-type=0 / copy-pic=1 / max-ausize-factor=1.0 / no-dynamic-refine / no-single-sei
Default                                  : Yes
Forced                                   : No
Color range                              : Limited
Color primaries                          : BT.709
Transfer characteristics                 : BT.709
Matrix coefficients                      : BT.709

Audio #1
ID                                       : 2
Format                                   : Opus
Codec ID                                 : A_OPUS
Duration                                 : 23 min 45 s
Bit rate                                 : 94.7 kb/s
Channel(s)                               : 2 channels
Channel layout                           : L R
Sampling rate                            : 48.0 kHz
Frame rate                               : 50.000 FPS (960 SPF)
Compression mode                         : Lossy
Delay relative to video                  : -7 ms
Stream size                              : 16.1 MiB (4%)
Title                                    : English
Language                                 : English
Default                                  : Yes
Forced                                   : No

Audio #2
ID                                       : 3
Format                                   : Opus
Codec ID                                 : A_OPUS
Duration                                 : 23 min 45 s
Bit rate                                 : 96.6 kb/s
Channel(s)                               : 2 channels
Channel layout                           : L R
Sampling rate                            : 48.0 kHz
Frame rate                               : 50.000 FPS (960 SPF)
Compression mode                         : Lossy
Delay relative to video                  : -7 ms
Stream size                              : 16.4 MiB (4%)
Title                                    : Castilian
Language                                 : Spanish
Default                                  : No
Forced                                   : No

Audio #3
ID                                       : 4
Format                                   : Opus
Codec ID                                 : A_OPUS
Duration                                 : 23 min 45 s
Bit rate                                 : 95.9 kb/s
Channel(s)                               : 2 channels
Channel layout                           : L R
Sampling rate                            : 48.0 kHz
Frame rate                               : 50.000 FPS (960 SPF)
Compression mode                         : Lossy
Delay relative to video                  : -7 ms
Stream size                              : 16.3 MiB (4%)
Title                                    : Spanish
Language                                 : Spanish
Default                                  : No
Forced                                   : No

Audio #4
ID                                       : 5
Format                                   : Opus
Codec ID                                 : A_OPUS
Duration                                 : 23 min 45 s
Bit rate                                 : 94.8 kb/s
Channel(s)                               : 2 channels
Channel layout                           : L R
Sampling rate                            : 48.0 kHz
Frame rate                               : 50.000 FPS (960 SPF)
Compression mode                         : Lossy
Delay relative to video                  : -7 ms
Stream size                              : 16.1 MiB (4%)
Title                                    : French
Language                                 : French
Default                                  : No
Forced                                   : No

Audio #5
ID                                       : 6
Format                                   : Opus
Codec ID                                 : A_OPUS
Duration                                 : 23 min 45 s
Bit rate                                 : 96.6 kb/s
Channel(s)                               : 2 channels
Channel layout                           : L R
Sampling rate                            : 48.0 kHz
Frame rate                               : 50.000 FPS (960 SPF)
Compression mode                         : Lossy
Delay relative to video                  : -7 ms
Stream size                              : 16.4 MiB (4%)
Title                                    : German
Language                                 : German
Default                                  : No
Forced                                   : No

Audio #6
ID                                       : 7
Format                                   : Opus
Codec ID                                 : A_OPUS
Duration                                 : 23 min 45 s
Bit rate                                 : 94.5 kb/s
Channel(s)                               : 2 channels
Channel layout                           : L R
Sampling rate                            : 48.0 kHz
Frame rate                               : 50.000 FPS (960 SPF)
Compression mode                         : Lossy
Delay relative to video                  : -7 ms
Stream size                              : 16.1 MiB (4%)
Title                                    : Italian
Language                                 : Italian
Default                                  : No
Forced                                   : No

Audio #7
ID                                       : 8
Format                                   : Opus
Codec ID                                 : A_OPUS
Duration                                 : 23 min 45 s
Bit rate                                 : 96.9 kb/s
Channel(s)                               : 2 channels
Channel layout                           : L R
Sampling rate                            : 48.0 kHz
Frame rate                               : 50.000 FPS (960 SPF)
Compression mode                         : Lossy
Delay relative to video                  : -7 ms
Stream size                              : 16.5 MiB (4%)
Title                                    : Brazilian Portuguese
Language                                 : Portuguese
Default                                  : No
Forced                                   : No

Audio #8
ID                                       : 9
Format                                   : Opus
Codec ID                                 : A_OPUS
Duration                                 : 23 min 45 s
Bit rate                                 : 95.2 kb/s
Channel(s)                               : 2 channels
Channel layout                           : L R
Sampling rate                            : 48.0 kHz
Frame rate                               : 50.000 FPS (960 SPF)
Compression mode                         : Lossy
Delay relative to video                  : -7 ms
Stream size                              : 16.2 MiB (4%)
Title                                    : Japanese
Language                                 : Japanese
Default                                  : No
Forced                                   : No

Audio #9
ID                                       : 10
Format                                   : Opus
Codec ID                                 : A_OPUS
Duration                                 : 23 min 45 s
Bit rate                                 : 95.2 kb/s
Channel(s)                               : 2 channels
Channel layout                           : L R
Sampling rate                            : 48.0 kHz
Frame rate                               : 50.000 FPS (960 SPF)
Compression mode                         : Lossy
Delay relative to video                  : -7 ms
Stream size                              : 16.2 MiB (4%)
Title                                    : Japanese (Audio Description)
Language                                 : Japanese
Default                                  : No
Forced                                   : No

Text #1
ID                                       : 11
Format                                   : ASS
Codec ID                                 : S_TEXT/ASS
Codec ID/Info                            : Advanced Sub Station Alpha
Duration                                 : 22 min 41 s
Bit rate                                 : 84 b/s
Count of elements                        : 283
Compression mode                         : Lossless
Stream size                              : 14.1 KiB (0%)
Title                                    : English [Forced]
Language                                 : English
Default                                  : No
Forced                                   : No

Text #2
ID                                       : 12
Format                                   : ASS
Codec ID                                 : S_TEXT/ASS
Codec ID/Info                            : Advanced Sub Station Alpha
Duration                                 : 22 min 54 s
Bit rate                                 : 22 b/s
Count of elements                        : 66
Compression mode                         : Lossless
Stream size                              : 3.73 KiB (0%)
Title                                    : English [Full]
Language                                 : English
Default                                  : No
Forced                                   : No

Text #3
ID                                       : 13
Format                                   : ASS
Codec ID                                 : S_TEXT/ASS
Codec ID/Info                            : Advanced Sub Station Alpha
Duration                                 : 22 min 48 s
Bit rate                                 : 105 b/s
Count of elements                        : 350
Compression mode                         : Lossless
Stream size                              : 17.7 KiB (0%)
Title                                    : Castilian [Forced]
Language                                 : Spanish
Default                                  : No
Forced                                   : No

Text #4
ID                                       : 14
Format                                   : ASS
Codec ID                                 : S_TEXT/ASS
Codec ID/Info                            : Advanced Sub Station Alpha
Duration                                 : 22 min 54 s
Bit rate                                 : 23 b/s
Count of elements                        : 66
Compression mode                         : Lossless
Stream size                              : 3.97 KiB (0%)
Title                                    : Castilian [Full]
Language                                 : Spanish
Default                                  : No
Forced                                   : No

Text #5
ID                                       : 15
Format                                   : ASS
Codec ID                                 : S_TEXT/ASS
Codec ID/Info                            : Advanced Sub Station Alpha
Duration                                 : 22 min 48 s
Bit rate                                 : 110 b/s
Count of elements                        : 350
Compression mode                         : Lossless
Stream size                              : 18.4 KiB (0%)
Title                                    : Spanish [Forced]
Language                                 : Spanish
Default                                  : No
Forced                                   : No

Text #6
ID                                       : 16
Format                                   : ASS
Codec ID                                 : S_TEXT/ASS
Codec ID/Info                            : Advanced Sub Station Alpha
Duration                                 : 22 min 54 s
Bit rate                                 : 2 b/s
Count of elements                        : 9
Compression mode                         : Lossless
Stream size                              : 395 Bytes (0%)
Title                                    : Spanish [Full]
Language                                 : Spanish
Default                                  : No
Forced                                   : No

Text #7
ID                                       : 17
Format                                   : ASS
Codec ID                                 : S_TEXT/ASS
Codec ID/Info                            : Advanced Sub Station Alpha
Duration                                 : 22 min 48 s
Bit rate                                 : 108 b/s
Count of elements                        : 347
Compression mode                         : Lossless
Stream size                              : 18.1 KiB (0%)
Title                                    : French [Forced]
Language                                 : French
Default                                  : No
Forced                                   : No

Text #8
ID                                       : 18
Format                                   : ASS
Codec ID                                 : S_TEXT/ASS
Codec ID/Info                            : Advanced Sub Station Alpha
Duration                                 : 22 min 54 s
Bit rate                                 : 3 b/s
Count of elements                        : 15
Compression mode                         : Lossless
Stream size                              : 620 Bytes (0%)
Title                                    : French [Full]
Language                                 : French
Default                                  : No
Forced                                   : No

Text #9
ID                                       : 19
Format                                   : ASS
Codec ID                                 : S_TEXT/ASS
Codec ID/Info                            : Advanced Sub Station Alpha
Duration                                 : 22 min 48 s
Bit rate                                 : 107 b/s
Count of elements                        : 348
Compression mode                         : Lossless
Stream size                              : 17.9 KiB (0%)
Title                                    : German [Forced]
Language                                 : German
Default                                  : No
Forced                                   : No

Text #10
ID                                       : 20
Format                                   : ASS
Codec ID                                 : S_TEXT/ASS
Codec ID/Info                            : Advanced Sub Station Alpha
Duration                                 : 22 min 54 s
Bit rate                                 : 25 b/s
Count of elements                        : 72
Compression mode                         : Lossless
Stream size                              : 4.35 KiB (0%)
Title                                    : German [Full]
Language                                 : German
Default                                  : No
Forced                                   : No

Text #11
ID                                       : 21
Format                                   : ASS
Codec ID                                 : S_TEXT/ASS
Codec ID/Info                            : Advanced Sub Station Alpha
Duration                                 : 22 min 48 s
Bit rate                                 : 108 b/s
Count of elements                        : 347
Compression mode                         : Lossless
Stream size                              : 18.1 KiB (0%)
Title                                    : Italian [Forced]
Language                                 : Italian
Default                                  : No
Forced                                   : No

Text #12
ID                                       : 22
Format                                   : ASS
Codec ID                                 : S_TEXT/ASS
Codec ID/Info                            : Advanced Sub Station Alpha
Duration                                 : 22 min 48 s
Bit rate                                 : 105 b/s
Count of elements                        : 347
Compression mode                         : Lossless
Stream size                              : 17.6 KiB (0%)
Title                                    : Italian [Full]
Language                                 : Italian
Default                                  : No
Forced                                   : No

Text #13
ID                                       : 23
Format                                   : ASS
Codec ID                                 : S_TEXT/ASS
Codec ID/Info                            : Advanced Sub Station Alpha
Duration                                 : 22 min 54 s
Bit rate                                 : 23 b/s
Count of elements                        : 64
Compression mode                         : Lossless
Stream size                              : 3.98 KiB (0%)
Title                                    : Portuguese [Full]
Language                                 : Portuguese
Default                                  : No
Forced                                   : No

Text #14
ID                                       : 24
Format                                   : ASS
Codec ID                                 : S_TEXT/ASS
Codec ID/Info                            : Advanced Sub Station Alpha
Duration                                 : 22 min 48 s
Bit rate                                 : 108 b/s
Count of elements                        : 348
Compression mode                         : Lossless
Stream size                              : 18.2 KiB (0%)
Title                                    : Brazilian Portuguese [Forced]
Language                                 : Portuguese
Default                                  : No
Forced                                   : No

Text #15
ID                                       : 25
Format                                   : ASS
Codec ID                                 : S_TEXT/ASS
Codec ID/Info                            : Advanced Sub Station Alpha
Duration                                 : 22 min 48 s
Bit rate                                 : 109 b/s
Count of elements                        : 352
Compression mode                         : Lossless
Stream size                              : 18.2 KiB (0%)
Title                                    : Brazilian Portuguese [Full]
Language                                 : Portuguese
Default                                  : No
Forced                                   : No

Text #16
ID                                       : 26
Format                                   : ASS
Codec ID                                 : S_TEXT/ASS
Codec ID/Info                            : Advanced Sub Station Alpha
Duration                                 : 22 min 48 s
Bit rate                                 : 110 b/s
Count of elements                        : 350
Compression mode                         : Lossless
Stream size                              : 18.5 KiB (0%)
Title                                    : Polish [Full]
Language                                 : Polish
Default                                  : No
Forced                                   : No

Text #17
ID                                       : 27
Format                                   : ASS
Codec ID                                 : S_TEXT/ASS
Codec ID/Info                            : Advanced Sub Station Alpha
Duration                                 : 22 min 48 s
Bit rate                                 : 101 b/s
Count of elements                        : 317
Compression mode                         : Lossless
Stream size                              : 17.0 KiB (0%)
Title                                    : Turkish [Full]
Language                                 : Turkish
Default                                  : No
Forced                                   : No

Text #18
ID                                       : 28
Format                                   : ASS
Codec ID                                 : S_TEXT/ASS
Codec ID/Info                            : Advanced Sub Station Alpha
Duration                                 : 22 min 48 s
Bit rate                                 : 104 b/s
Count of elements                        : 322
Compression mode                         : Lossless
Stream size                              : 17.4 KiB (0%)
Title                                    : Swedish [Full]
Language                                 : Swedish
Default                                  : No
Forced                                   : No

Text #19
ID                                       : 29
Format                                   : ASS
Codec ID                                 : S_TEXT/ASS
Codec ID/Info                            : Advanced Sub Station Alpha
Duration                                 : 22 min 48 s
Bit rate                                 : 98 b/s
Count of elements                        : 309
Compression mode                         : Lossless
Stream size                              : 16.5 KiB (0%)
Title                                    : Danish [Full]
Language                                 : Danish
Default                                  : No
Forced                                   : No

Text #20
ID                                       : 30
Format                                   : ASS
Codec ID                                 : S_TEXT/ASS
Codec ID/Info                            : Advanced Sub Station Alpha
Duration                                 : 22 min 48 s
Bit rate                                 : 102 b/s
Count of elements                        : 311
Compression mode                         : Lossless
Stream size                              : 17.1 KiB (0%)
Title                                    : Finnish [Full]
Language                                 : Finnish
Default                                  : No
Forced                                   : No

Text #21
ID                                       : 31
Format                                   : ASS
Codec ID                                 : S_TEXT/ASS
Codec ID/Info                            : Advanced Sub Station Alpha
Duration                                 : 22 min 48 s
Bit rate                                 : 101 b/s
Count of elements                        : 341
Compression mode                         : Lossless
Stream size                              : 17.0 KiB (0%)
Title                                    : Dutch [Full]
Language                                 : Dutch
Default                                  : No
Forced                                   : No

Text #22
ID                                       : 32
Format                                   : ASS
Codec ID                                 : S_TEXT/ASS
Codec ID/Info                            : Advanced Sub Station Alpha
Duration                                 : 22 min 48 s
Bit rate                                 : 154 b/s
Count of elements                        : 352
Compression mode                         : Lossless
Stream size                              : 25.9 KiB (0%)
Title                                    : Norwegian [Full]
Language                                 : Norwegian
Default                                  : No
Forced                                   : No

Text #23
ID                                       : 33
Format                                   : ASS
Codec ID                                 : S_TEXT/ASS
Codec ID/Info                            : Advanced Sub Station Alpha
Duration                                 : 22 min 48 s
Bit rate                                 : 101 b/s
Count of elements                        : 351
Compression mode                         : Lossless
Stream size                              : 16.9 KiB (0%)
Title                                    : Russian [Full]
Language                                 : Russian
Default                                  : No
Forced                                   : No

Text #24
ID                                       : 34
Format                                   : ASS
Codec ID                                 : S_TEXT/ASS
Codec ID/Info                            : Advanced Sub Station Alpha
Duration                                 : 22 min 48 s
Bit rate                                 : 151 b/s
Count of elements                        : 344
Compression mode                         : Lossless
Stream size                              : 25.3 KiB (0%)
Title                                    : Hungarian [Full]
Language                                 : Hungarian
Default                                  : No
Forced                                   : No

Text #25
ID                                       : 35
Format                                   : ASS
Codec ID                                 : S_TEXT/ASS
Codec ID/Info                            : Advanced Sub Station Alpha
Duration                                 : 22 min 48 s
Bit rate                                 : 144 b/s
Count of elements                        : 350
Compression mode                         : Lossless
Stream size                              : 24.2 KiB (0%)
Title                                    : Greek [Full]
Language                                 : Greek
Default                                  : No
Forced                                   : No

Text #26
ID                                       : 36
Format                                   : ASS
Codec ID                                 : S_TEXT/ASS
Codec ID/Info                            : Advanced Sub Station Alpha
Duration                                 : 22 min 48 s
Bit rate                                 : 146 b/s
Count of elements                        : 351
Compression mode                         : Lossless
Stream size                              : 24.6 KiB (0%)
Title                                    : Hebrew [Full]
Language                                 : Hebrew
Default                                  : No
Forced                                   : No

Text #27
ID                                       : 37
Format                                   : ASS
Codec ID                                 : S_TEXT/ASS
Codec ID/Info                            : Advanced Sub Station Alpha
Duration                                 : 22 min 48 s
Bit rate                                 : 116 b/s
Count of elements                        : 347
Compression mode                         : Lossless
Stream size                              : 19.5 KiB (0%)
Title                                    : Arabic [Full]
Language                                 : Arabic
Default                                  : No
Forced                                   : No

Text #28
ID                                       : 38
Format                                   : ASS
Codec ID                                 : S_TEXT/ASS
Codec ID/Info                            : Advanced Sub Station Alpha
Duration                                 : 22 min 48 s
Bit rate                                 : 104 b/s
Count of elements                        : 347
Compression mode                         : Lossless
Stream size                              : 17.5 KiB (0%)
Title                                    : Romanian [Full]
Language                                 : Romanian
Default                                  : No
Forced                                   : No

Text #29
ID                                       : 39
Format                                   : ASS
Codec ID                                 : S_TEXT/ASS
Codec ID/Info                            : Advanced Sub Station Alpha
Duration                                 : 22 min 48 s
Bit rate                                 : 108 b/s
Count of elements                        : 348
Compression mode                         : Lossless
Stream size                              : 18.1 KiB (0%)
Title                                    : Czech [Full]
Language                                 : Czech
Default                                  : No
Forced                                   : No

Text #30
ID                                       : 40
Format                                   : ASS
Codec ID                                 : S_TEXT/ASS
Codec ID/Info                            : Advanced Sub Station Alpha
Duration                                 : 22 min 48 s
Bit rate                                 : 139 b/s
Count of elements                        : 350
Compression mode                         : Lossless
Stream size                              : 23.3 KiB (0%)
Title                                    : Indonesian [Full]
Language                                 : Indonesian
Default                                  : No
Forced                                   : No

Text #31
ID                                       : 41
Format                                   : ASS
Codec ID                                 : S_TEXT/ASS
Codec ID/Info                            : Advanced Sub Station Alpha
Duration                                 : 22 min 48 s
Bit rate                                 : 203 b/s
Count of elements                        : 352
Compression mode                         : Lossless
Stream size                              : 33.9 KiB (0%)
Title                                    : Vietnamese [Full]
Language                                 : Vietnamese
Default                                  : No
Forced                                   : No

Text #32
ID                                       : 42
Format                                   : ASS
Codec ID                                 : S_TEXT/ASS
Codec ID/Info                            : Advanced Sub Station Alpha
Duration                                 : 22 min 54 s
Bit rate                                 : 120 b/s
Count of elements                        : 355
Compression mode                         : Lossless
Stream size                              : 20.2 KiB (0%)
Title                                    : Thai [Full]
Language                                 : Thai
Default                                  : No
Forced                                   : No

Text #33
ID                                       : 43
Format                                   : ASS
Codec ID                                 : S_TEXT/ASS
Codec ID/Info                            : Advanced Sub Station Alpha
Duration                                 : 22 min 48 s
Bit rate                                 : 106 b/s
Count of elements                        : 352
Compression mode                         : Lossless
Stream size                              : 17.8 KiB (0%)
Title                                    : Korean [Full]
Language                                 : Korean
Default                                  : No
Forced                                   : No

Text #34
ID                                       : 44
Format                                   : ASS
Codec ID                                 : S_TEXT/ASS
Codec ID/Info                            : Advanced Sub Station Alpha
Duration                                 : 22 min 48 s
Bit rate                                 : 104 b/s
Count of elements                        : 350
Compression mode                         : Lossless
Stream size                              : 17.4 KiB (0%)
Title                                    : Chinese (Simplified) [Full]
Language                                 : Chinese
Default                                  : No
Forced                                   : No

Text #35
ID                                       : 45
Format                                   : ASS
Codec ID                                 : S_TEXT/ASS
Codec ID/Info                            : Advanced Sub Station Alpha
Duration                                 : 12 min 3 s
Bit rate                                 : 38 b/s
Count of elements                        : 60
Compression mode                         : Lossless
Stream size                              : 3.38 KiB (0%)
Title                                    : Chinese (Traditional) [Full]
Language                                 : Chinese
Default                                  : No
Forced                                   : No

Text #36
ID                                       : 46
Format                                   : ASS
Codec ID                                 : S_TEXT/ASS
Codec ID/Info                            : Advanced Sub Station Alpha
Duration                                 : 22 min 42 s
Bit rate                                 : 149 b/s
Count of elements                        : 383
Compression mode                         : Lossless
Stream size                              : 24.9 KiB (0%)
Title                                    : Japanese (SDH)
Language                                 : Japanese
Default                                  : No
Forced                                   : No

Other Files in this Torrent
[Hakata Ramen] Carole & Tuesday - 10.mkv
beta
Anime DDL+NZB mirror
Current Time: 27/02/2021 09:31



About/FAQs