[Hadena] Zetman - 11 [480p][C2A02680].mp4


File Size176.3 MB (184,870,208 bytes)
DownloadFlameUpload | JumboFiles
HashesCRC32: C2A02680, MD5: 3ADCFFCC8FDFF132C56B1E873BD1AA10, SHA1: 3D1655B52302CB3A1ECC12CBC63437EFC50259B4, SHA256: 0D0EA616828F5503F14BC36DA2B8A7DC6E8E2F9397B2C2319983FD77EA5D087E, ED2K: D293CBD10A1A183DE0848157C78E6F43
Screenshots
screenshotscreenshotscreenshotscreenshotscreenshot
Additional Info
General
Complete name                            : [Hadena] Zetman - 11 [480p][C2A02680].mp4
Format                                   : MPEG-4
Format profile                           : Base Media
Codec ID                                 : isom
File size                                : 176 MiB
Duration                                 : 24mn 0s
Overall bit rate mode                    : Variable
Overall bit rate                         : 1 027 Kbps
Encoded date                             : UTC 2012-06-11 09:56:26
Tagged date                              : UTC 2012-06-11 09:56:26
Writing application                      : My MP4Box GUI 0.5.6.0 <http://my-mp4box-gui.zymichost.com>

Video
ID                                       : 1
Format                                   : AVC
Format/Info                              : Advanced Video Codec
Format profile                           : High@L4.1
Format settings, CABAC                   : Yes
Format settings, ReFrames                : 6 frames
Codec ID                                 : avc1
Codec ID/Info                            : Advanced Video Coding
Duration                                 : 23mn 59s
Bit rate                                 : 896 Kbps
Maximum bit rate                         : 3 844 Kbps
Width                                    : 848 pixels
Height                                   : 480 pixels
Display aspect ratio                     : 16:9
Frame rate mode                          : Constant
Frame rate                               : 23.976 fps
Color space                              : YUV
Chroma subsampling                       : 4:2:0
Bit depth                                : 8 bits
Scan type                                : Progressive
Bits/(Pixel*Frame)                       : 0.092
Stream size                              : 154 MiB (87%)
Writing library                          : x264 core 125 r2200+677M 3a754e7
Encoding settings                        : cabac=1 / ref=6 / deblock=1:1:1 / analyse=0x3:0x113 / me=umh / subme=8 / psy=1 / fade_compensate=0.40 / psy_rd=0.40:0.00 / mixed_ref=1 / me_range=16 / chroma_me=1 / trellis=1 / 8x8dct=1 / cqm=0 / deadzone=21,11 / fast_pskip=0 / chroma_qp_offset=-2 / threads=12 / lookahead_threads=2 / sliced_threads=0 / nr=0 / decimate=1 / interlaced=0 / bluray_compat=0 / constrained_intra=0 / fgo=5 / bframes=6 / b_pyramid=2 / b_adapt=2 / b_bias=0 / direct=3 / weightb=1 / open_gop=1 / weightp=2 / keyint=250 / keyint_min=23 / scenecut=40 / intra_refresh=0 / rc_lookahead=50 / rc=crf / mbtree=1 / crf=18.0000 / qcomp=0.60 / qpmin=0 / qpmax=69 / qpstep=4 / ip_ratio=1.40 / aq=1:0.60
Encoded date                             : UTC 2012-06-12 09:24:47
Tagged date                              : UTC 2012-06-11 09:56:35
Matrix coefficients                      : BT.709-5, BT.1361, IEC 61966-2-4 709, SMPTE RP177

Audio
ID                                       : 2
Format                                   : AAC
Format/Info                              : Advanced Audio Codec
Format profile                           : HE-AAC / LC
Codec ID                                 : 40
Duration                                 : 24mn 0s
Bit rate mode                            : Variable
Bit rate                                 : 128 Kbps
Maximum bit rate                         : 137 Kbps
Channel(s)                               : 2 channels
Channel positions                        : Front: L R
Sampling rate                            : 48.0 KHz / 24.0 KHz
Compression mode                         : Lossy
Delay relative to video                  : -3s 337ms
Stream size                              : 22.0 MiB (12%)
Encoded date                             : UTC 2012-06-11 09:56:33
Tagged date                              : UTC 2012-06-11 09:56:35
beta
Anime DDL+NZB mirror
Current Time: 26/07/2021 23:39



About/FAQs