File Size144.1 MB (151,062,509 bytes)
DownloadFlameUpload | Hitfile | JumboFiles | TurboBit | UploadedTo
HashesCRC32: 723F1D6D, MD5: F03B81F0BA837C37A2EB8F212367AED0, SHA1: F53416CB4D88728A54EF534E31E2EE4E1B708094, SHA256: D5B63892B283A5F725A7D36A6F01BB72182D65C1F64C5768A776E6906A7360D2, ED2K: D97CA449EC2EA59706526E797D29F2F0
Screenshots
screenshotscreenshotscreenshotscreenshotscreenshot
Additional Info
General
Complete name                    : [Hadena] Tasogare Otome x Amnesia - 11 [480p][723F1D6D].mp4
Format                           : MPEG-4
Format profile                   : Base Media
Codec ID                         : isom
File size                        : 144 MiB
Duration                         : 24mn 0s
Overall bit rate                 : 839 Kbps
Encoded date                     : UTC 2012-06-17 01:41:27
Tagged date                      : UTC 2012-06-17 01:41:27
Writing application              : My MP4Box GUI 0.5.6.0 <http://my-mp4box-gui.zymichost.com>

Video
ID                               : 1
Format                           : AVC
Format/Info                      : Advanced Video Codec
Format profile                   : High@L4.1
Format settings, CABAC           : Yes
Format settings, ReFrames        : 16 frames
Codec ID                         : avc1
Codec ID/Info                    : Advanced Video Coding
Duration                         : 23mn 59s
Bit rate mode                    : Variable
Bit rate                         : 708 Kbps
Maximum bit rate                 : 8 531 Kbps
Width                            : 848 pixels
Height                           : 480 pixels
Display aspect ratio             : 16:9
Frame rate mode                  : Constant
Frame rate                       : 23.976 fps
Color space                      : YUV
Chroma subsampling               : 4:2:0
Bit depth                        : 8 bits
Scan type                        : Progressive
Bits/(Pixel*Frame)               : 0.073
Stream size                      : 122 MiB (84%)
Writing library                  : x264 core 125 r2200+677M 3a754e7
Encoding settings                : cabac=1 / ref=16 / deblock=1:1:1 / analyse=0x3:0x133 / me=umh / subme=10 / psy=1 / fade_compensate=0.70 / psy_rd=0.40:0.00 / mixed_ref=1 / me_range=24 / chroma_me=1 / trellis=2 / 8x8dct=1 / cqm=0 / deadzone=21,11 / fast_pskip=0 / chroma_qp_offset=-2 / threads=12 / lookahead_threads=2 / sliced_threads=0 / nr=0 / decimate=1 / interlaced=0 / bluray_compat=0 / constrained_intra=0 / fgo=5 / bframes=10 / b_pyramid=2 / b_adapt=2 / b_bias=0 / direct=3 / weightb=1 / open_gop=0 / weightp=2 / keyint=250 / keyint_min=23 / scenecut=40 / intra_refresh=0 / rc_lookahead=60 / rc=crf / mbtree=1 / crf=18.0000 / qcomp=0.60 / qpmin=0 / qpmax=69 / qpstep=4 / ip_ratio=1.40 / aq=1:0.60
Encoded date                     : UTC 2012-06-18 01:37:44
Tagged date                      : UTC 2012-06-17 01:41:28
Matrix coefficients              : BT.709-5, BT.1361, IEC 61966-2-4 709, SMPTE RP177

Audio
ID                               : 2
Format                           : AAC
Format/Info                      : Advanced Audio Codec
Format profile                   : HE-AAC / LC
Codec ID                         : 40
Duration                         : 24mn 0s
Bit rate mode                    : Variable
Bit rate                         : 128 Kbps
Maximum bit rate                 : 138 Kbps
Channel(s)                       : 2 channels
Channel positions                : Front: L R
Sampling rate                    : 48.0 KHz / 24.0 KHz
Compression mode                 : Lossy
Stream size                      : 22.0 MiB (15%)
Encoded date                     : UTC 2012-06-17 01:41:27
Tagged date                      : UTC 2012-06-17 01:41:28
beta
Anime DDL+NZB mirror
Current Time: 24/09/2021 12:09



About/FAQs