File Size168.5 MB (176,681,172 bytes)
DownloadBayFiles | FlameUpload | JumboFiles | UploadedTo
HashesCRC32: F035AB99, MD5: 444FE28901166FC96A20F4462728D210, SHA1: 97C5E907D60F0BFDF3D64F3256CF97EAD53256D2, SHA256: C8CAEA1DD1FF12C0941F9E18711DC550F71E9D2F020EAF8DF70E8C5C3BD85C4D, ED2K: 73C160EED8F28741878683213CA331AF
Screenshots
screenshotscreenshotscreenshotscreenshotscreenshot
Additional Info
General
Complete name                            : [Hadena] Shining Hearts - Shiawase no Pan - 07 [480p][F035AB99].mp4
Format                                   : MPEG-4
Format profile                           : Base Media
Codec ID                                 : isom
File size                                : 168 MiB
Duration                                 : 23mn 59s
Overall bit rate mode                    : Variable
Overall bit rate                         : 982 Kbps
Encoded date                             : UTC 2012-05-25 02:14:59
Tagged date                              : UTC 2012-05-25 02:14:59
Writing application                      : My MP4Box GUI 0.5.6.0 <http://my-mp4box-gui.zymichost.com>

Video
ID                                       : 1
Format                                   : AVC
Format/Info                              : Advanced Video Codec
Format profile                           : High@L3.1
Format settings, CABAC                   : Yes
Format settings, ReFrames                : 6 frames
Codec ID                                 : avc1
Codec ID/Info                            : Advanced Video Coding
Duration                                 : 23mn 59s
Bit rate                                 : 740 Kbps
Maximum bit rate                         : 5 852 Kbps
Width                                    : 848 pixels
Height                                   : 480 pixels
Display aspect ratio                     : 16:9
Frame rate mode                          : Constant
Frame rate                               : 23.976 fps
Color space                              : YUV
Chroma subsampling                       : 4:2:0
Bit depth                                : 8 bits
Scan type                                : Progressive
Bits/(Pixel*Frame)                       : 0.076
Stream size                              : 127 MiB (75%)
Writing library                          : x264 core 123 r2184+681M 5d72658
Encoding settings                        : cabac=1 / ref=6 / deblock=1:1:1 / analyse=0x3:0x113 / me=hex / subme=7 / psy=1 / fade_compensate=0.40 / psy_rd=0.40:0.00 / mixed_ref=1 / me_range=16 / chroma_me=1 / trellis=1 / 8x8dct=1 / cqm=0 / deadzone=21,11 / fast_pskip=0 / chroma_qp_offset=-2 / threads=12 / sliced_threads=0 / nr=0 / decimate=1 / interlaced=0 / bluray_compat=0 / constrained_intra=0 / fgo=5 / bframes=5 / b_pyramid=2 / b_adapt=1 / b_bias=0 / direct=1 / weightb=1 / open_gop=0 / weightp=2 / keyint=250 / keyint_min=23 / scenecut=40 / intra_refresh=0 / rc_lookahead=40 / rc=crf / mbtree=1 / crf=19.5000 / qcomp=0.60 / qpmin=0 / qpmax=69 / qpstep=4 / ip_ratio=1.40 / aq=1:0.60
Encoded date                             : UTC 2012-05-25 13:30:36
Tagged date                              : UTC 2012-05-25 02:15:34
Matrix coefficients                      : BT.709-5, BT.1361, IEC 61966-2-4 709, SMPTE RP177

Audio
ID                                       : 2
Format                                   : AAC
Format/Info                              : Advanced Audio Codec
Format profile                           : LC
Codec ID                                 : 40
Duration                                 : 23mn 59s
Bit rate mode                            : Variable
Bit rate                                 : 238 Kbps
Maximum bit rate                         : 274 Kbps
Channel(s)                               : 2 channels
Channel positions                        : Front: L R
Sampling rate                            : 48.0 KHz
Compression mode                         : Lossy
Delay relative to video                  : -3s 337ms
Stream size                              : 40.9 MiB (24%)
Title                                    : Imported with GPAC 0.4.6-DEV (internal rev. 5)
Encoded date                             : UTC 2012-05-25 02:15:08
Tagged date                              : UTC 2012-05-25 02:15:34
beta
Anime DDL+NZB mirror
Current Time: 24/09/2021 12:53



About/FAQs