File Size928.7 MB (973,814,136 bytes)
DownloadClickNUpload | DailyUploads | DownloadGG | GoFile | KrakenFiles | MdiaLoad | Uppit
MultiUp: Part1
  • BdUpload
  • DownAce
  • Fichier
  • FileCloud
  • Filerio
  • FilesCdn
  • IndiShare
  • Kbagi
  • Turbobit
  • UpToBox
  • Uppit
, Part2
  • BdUpload
  • DownAce
  • Fichier
  • FileCloud
  • Filerio
  • FilesCdn
  • IndiShare
  • Kbagi
  • Turbobit
  • UpToBox
  • Uppit
HashesCRC32: AFFC8F70, MD5: 685D24A0ABE1D007C82F8D3330762ACF, SHA1: 077AEACA209F086703C8E3413ADF2B06630128DA, SHA256: 3E4907795A44F543B128A1F67AE0F223EE1DE3B63D4F5202231F489DAE15F015, ED2K: 161D041CBD7EA95C8271201E54262E8D
Screenshots
screenshotscreenshotscreenshotscreenshotscreenshot
SubtitlesAll Attachments | eng [ASS], Latin American [spa, ASS]
Additional Info
General
Unique ID                                : 184519103516635809489045199106723890404 (0x8AD116307DC254F4DED222081D1544E4)
Complete name                            : Gushing.Over.Magical.Girls.S01E07.Azure.in.Trouble.1080p.HIDI.WEB-DL.AAC2.0.H.264-VARYG.mkv
Format                                   : Matroska
Format version                           : Version 4
File size                                : 929 MiB
Duration                                 : 23 min 42 s
Overall bit rate                         : 5 477 kb/s
Frame rate                               : 24.000 FPS
Writing application                      : mkvmerge v82.0 ('I'm The President') 64-bit
Writing library                          : libebml v1.4.5 + libmatroska v1.7.1
Attachments                              : arial.ttf / CHILLER.TTF / Swiss-721-BT-Font.ttf / VAGRON.TTF

Video
ID                                       : 1
Format                                   : AVC
Format/Info                              : Advanced Video Codec
Format profile                           : High@L4
Format settings                          : CABAC / 4 Ref Frames
Format settings, CABAC                   : Yes
Format settings, Reference frames        : 4 frames
Codec ID                                 : V_MPEG4/ISO/AVC
Duration                                 : 23 min 42 s
Bit rate                                 : 5 372 kb/s
Width                                    : 1 920 pixels
Height                                   : 1 080 pixels
Display aspect ratio                     : 16:9
Frame rate mode                          : Constant
Frame rate                               : 24.000 FPS
Color space                              : YUV
Chroma subsampling                       : 4:2:0
Bit depth                                : 8 bits
Scan type                                : Progressive
Bits/(Pixel*Frame)                       : 0.108
Stream size                              : 905 MiB (97%)
Writing library                          : x264 core 164 r3153 5f84d40
Encoding settings                        : cabac=1 / ref=2 / deblock=1:0:0 / analyse=0x3:0x113 / me=hex / subme=6 / psy=1 / psy_rd=1.00:0.00 / mixed_ref=1 / me_range=16 / chroma_me=1 / trellis=1 / 8x8dct=1 / cqm=0 / deadzone=21,11 / fast_pskip=1 / chroma_qp_offset=-2 / threads=24 / lookahead_threads=4 / sliced_threads=0 / nr=0 / decimate=1 / interlaced=0 / bluray_compat=0 / constrained_intra=0 / bframes=2 / b_pyramid=2 / b_adapt=1 / b_bias=0 / direct=1 / weightb=1 / open_gop=0 / weightp=1 / keyint=48 / keyint_min=25 / scenecut=0 / intra_refresh=0 / rc_lookahead=30 / rc=2pass / mbtree=1 / bitrate=5372 / ratetol=1.0 / qcomp=0.60 / qpmin=0 / qpmax=69 / qpstep=4 / cplxblur=20.0 / qblur=0.5 / vbv_maxrate=5372 / vbv_bufsize=10744 / nal_hrd=none / filler=0 / ip_ratio=1.40 / aq=1:1.00
Default                                  : Yes
Forced                                   : No

Audio
ID                                       : 2
Format                                   : AAC LC
Format/Info                              : Advanced Audio Codec Low Complexity
Codec ID                                 : A_AAC-2
Duration                                 : 23 min 42 s
Bit rate                                 : 128 kb/s
Channel(s)                               : 2 channels
Channel layout                           : L R
Sampling rate                            : 48.0 kHz
Frame rate                               : 46.875 FPS (1024 SPF)
Compression mode                         : Lossy
Stream size                              : 21.8 MiB (2%)
Language                                 : Japanese
Default                                  : Yes
Forced                                   : No

Text #1
ID                                       : 3
Format                                   : ASS
Codec ID                                 : S_TEXT/ASS
Codec ID/Info                            : Advanced Sub Station Alpha
Duration                                 : 23 min 34 s
Bit rate                                 : 85 b/s
Frame rate                               : 0.215 FPS
Count of elements                        : 304
Compression mode                         : Lossless
Stream size                              : 14.8 KiB (0%)
Language                                 : English
Default                                  : Yes
Forced                                   : No

Text #2
ID                                       : 4
Format                                   : ASS
Codec ID                                 : S_TEXT/ASS
Codec ID/Info                            : Advanced Sub Station Alpha
Duration                                 : 23 min 34 s
Bit rate                                 : 78 b/s
Frame rate                               : 0.188 FPS
Count of elements                        : 266
Compression mode                         : Lossless
Stream size                              : 13.5 KiB (0%)
Title                                    : Latin American
Language                                 : Spanish (Latin America)
Default                                  : No
Forced                                   : No

Other Files in this Torrent
Gushing.Over.Magical.Girls.S01E07.Azure.in.Trouble.1080p.HIDI.WEB-DL.AAC2.0.H.264-VARYG.mkv
beta
Anime DDL+NZB mirror
Current Time: 14/06/2024 10:09



About/FAQs

Discord