File Size742.0 MB (778,087,736 bytes)
DownloadAnonFiles | ClickNUpload | DropAPK | Free
MultiUp: Part1
  • BdUpload
  • DownAce
  • Fichier
  • FileCloud
  • Filerio
  • FilesCdn
  • IndiShare
  • Kbagi
  • Turbobit
  • UpToBox
  • Uppit
, Part2
  • BdUpload
  • DownAce
  • Fichier
  • FileCloud
  • Filerio
  • FilesCdn
  • IndiShare
  • Kbagi
  • Turbobit
  • UpToBox
  • Uppit

SolidFiles: Part1, Part2
ZippyShare: Part1, Part2
HashesCRC32: AD69040B, MD5: 54EC4FEFC9E8060864FC36795C405302, SHA1: 5D0DD57267F835ADB0871D2D9AFA8466F2341552, SHA256: 0AB9FC5327EC25389D841C6723BB16D13E639466E3CE5BC653A8D80904B46841, ED2K: 8BA92AE2F13C246DABF1C8EF94CD14D2
Screenshots
screenshotscreenshotscreenshotscreenshotscreenshot
SubtitlesAll Attachments | Tenshi Style Subtitles with Karaoke [eng, ASS], Simulcast Style Subtitles [eng, ASS]
Additional Info
General
Unique ID                                : 71103101565059350077598488227888751636 (0x357DF59108BDEF173A5BA7806C63E414)
Complete name                            : [GST] Nanatsu no Taizai - Fundo no Shinpan - 01 [AbemaTV 1080p].mkv
Format                                   : Matroska
Format version                           : Version 4
File size                                : 742 MiB
Duration                                 : 24 min 12 s
Overall bit rate                         : 4 287 kb/s
Encoded date                             : UTC 2021-03-14 16:07:13
Writing application                      : mkvmerge v55.0.0 ('Waiting For Space') 64-bit
Writing library                          : libebml v1.4.2 + libmatroska v1.6.4
Attachments                              : Amaranth-BoldItalic.ttf / Amaranth-Italic.ttf / Amaranth-Regular.ttf / Big Caslon Medium.ttf / cambriab.ttf / FOT-TsukuAOldMinPr6N-D.otf / PatuaOne-Regular.ttf / Amaranth-Bold.ttf

Video
ID                                       : 1
Format                                   : AVC
Format/Info                              : Advanced Video Codec
Format profile                           : Main@L3.1
Format settings                          : CABAC / 4 Ref Frames
Format settings, CABAC                   : Yes
Format settings, ReFrames                : 4 frames
Codec ID                                 : V_MPEG4/ISO/AVC
Duration                                 : 24 min 11 s
Bit rate                                 : 4 000 kb/s
Width                                    : 1 920 pixels
Height                                   : 1 080 pixels
Display aspect ratio                     : 16:9
Frame rate mode                          : Constant
Frame rate                               : 23.976 (24000/1001) FPS
Color space                              : YUV
Chroma subsampling                       : 4:2:0
Bit depth                                : 8 bits
Scan type                                : Progressive
Bits/(Pixel*Frame)                       : 0.080
Stream size                              : 692 MiB (93%)
Writing library                          : x264 core 148 r265 3b70645
Encoding settings                        : cabac=1 / ref=2 / deblock=1:0:0 / analyse=0x1:0x111 / me=hex / subme=7 / psy=1 / psy_rd=1.00:0.00 / mixed_ref=1 / me_range=16 / chroma_me=1 / trellis=1 / 8x8dct=0 / cqm=0 / deadzone=21,11 / fast_pskip=1 / chroma_qp_offset=-2 / threads=9 / lookahead_threads=1 / sliced_threads=0 / nr=0 / decimate=1 / interlaced=0 / bluray_compat=0 / constrained_intra=0 / bframes=3 / b_pyramid=2 / b_adapt=1 / b_bias=0 / direct=1 / weightb=1 / open_gop=0 / weightp=2 / keyint=1000 / keyint_min=501 / scenecut=0 / intra_refresh=0 / rc_lookahead=40 / rc=2pass / mbtree=1 / bitrate=4000 / ratetol=1.0 / qcomp=0.60 / qpmin=0 / qpmax=69 / qpstep=4 / cplxblur=20.0 / qblur=0.5 / ip_ratio=1.40 / aq=1:1.00
Default                                  : Yes
Forced                                   : No

Audio
ID                                       : 2
Format                                   : AAC LC
Format/Info                              : Advanced Audio Codec Low Complexity
Codec ID                                 : A_AAC-2
Duration                                 : 24 min 12 s
Bit rate                                 : 192 kb/s
Channel(s)                               : 2 channels
Channel layout                           : L R
Sampling rate                            : 44.1 kHz
Frame rate                               : 43.066 FPS (1024 SPF)
Compression mode                         : Lossy
Delay relative to video                  : -23 ms
Stream size                              : 33.8 MiB (5%)
Language                                 : Japanese
Default                                  : Yes
Forced                                   : No

Text #1
ID                                       : 3
Format                                   : ASS
Codec ID                                 : S_TEXT/ASS
Codec ID/Info                            : Advanced Sub Station Alpha
Duration                                 : 22 min 37 s
Bit rate                                 : 7 699 b/s
Count of elements                        : 10256
Compression mode                         : Lossless
Stream size                              : 1.25 MiB (0%)
Title                                    : Tenshi Style Subtitles with Karaoke
Language                                 : English
Default                                  : Yes
Forced                                   : No

Text #2
ID                                       : 4
Format                                   : ASS
Codec ID                                 : S_TEXT/ASS
Codec ID/Info                            : Advanced Sub Station Alpha
Duration                                 : 22 min 37 s
Bit rate                                 : 85 b/s
Count of elements                        : 240
Compression mode                         : Lossless
Stream size                              : 14.1 KiB (0%)
Title                                    : Simulcast Style Subtitles
Language                                 : English
Default                                  : No
Forced                                   : No

Menu
00:00:00.000                             : ja:Prologue
00:05:15.982                             : ja:Opening Theme
00:06:45.989                             : :Part A
00:12:50.019                             : ja:Part B
00:22:11.205                             : ja:Ending Theme
00:23:41.003                             : ja:Preview

Other Files in this Torrent
[GST] Nanatsu no Taizai - Fundo no Shinpan - 01 [AbemaTV 1080p].mkv
beta
Anime DDL+NZB mirror
Current Time: 16/06/2021 20:08



About/FAQs