File Size400.0 MB (419,446,697 bytes)
DownloadClickNUpload | DropAPK | MultiUp
  • BdUpload
  • DownAce
  • Fichier
  • FileCloud
  • Filerio
  • FilesCdn
  • IndiShare
  • Kbagi
  • Turbobit
  • UpToBox
  • Uppit
| SolidFiles | ZippyShare
HashesCRC32: 11193B01, MD5: AFF925ED91FE3F4D159CF0A3859C2C0B, SHA1: 735014F719CFBDAE03EE6A750C84B72A8D3E8126, SHA256: BFE1C1239681DE6811B45BECE5E6DD492F4F074FD00921B0A746AB99261B3154, ED2K: C228BBFEF5839F65C3DBA6E747377AC2
Screenshots
screenshotscreenshotscreenshotscreenshotscreenshot
SubtitlesAll Attachments | English Closed Captions [eng, ASS]
Additional Info
General
Complete name                            : [Golumpa] Strike Witches - Road to Berlin - 07 [FuniDub 720p x264 AAC] [11193B01].mkv
Format                                   : Matroska
Format version                           : Version 4
File size                                : 400 MiB
Duration                                 : 23 min 50 s
Overall bit rate                         : 2 346 kb/s
Writing application                      : https://www.youtube.com/watch?v=_t46p_nFruU
Writing library                          : https://www.youtube.com/watch?v=inaZk5UKMo4

Video
ID                                       : 1
Format                                   : AVC
Format/Info                              : Advanced Video Codec
Format profile                           : Main@L4
Format settings                          : CABAC / 4 Ref Frames
Format settings, CABAC                   : Yes
Format settings, ReFrames                : 4 frames
Codec ID                                 : V_MPEG4/ISO/AVC
Duration                                 : 23 min 50 s
Bit rate                                 : 2 088 kb/s
Width                                    : 1 280 pixels
Height                                   : 720 pixels
Display aspect ratio                     : 16:9
Frame rate mode                          : Constant
Frame rate                               : 23.976 (24000/1001) FPS
Color space                              : YUV
Chroma subsampling                       : 4:2:0
Bit depth                                : 8 bits
Scan type                                : Progressive
Bits/(Pixel*Frame)                       : 0.094
Stream size                              : 356 MiB (89%)
Title                                    : Funimation WEB-DL
Default                                  : Yes
Forced                                   : No
Color range                              : Limited
Matrix coefficients                      : BT.709

Audio
ID                                       : 2
Format                                   : AAC LC
Format/Info                              : Advanced Audio Codec Low Complexity
Codec ID                                 : A_AAC-2
Duration                                 : 23 min 50 s
Bit rate                                 : 256 kb/s
Channel(s)                               : 2 channels
Channel layout                           : L R
Sampling rate                            : 48.0 kHz
Frame rate                               : 46.875 FPS (1024 SPF)
Compression mode                         : Lossy
Stream size                              : 43.6 MiB (11%)
Title                                    : English Dub
Language                                 : English
Default                                  : Yes
Forced                                   : No

Text
ID                                       : 3
Format                                   : ASS
Codec ID                                 : S_TEXT/ASS
Codec ID/Info                            : Advanced Sub Station Alpha
Duration                                 : 23 min 38 s
Bit rate                                 : 127 b/s
Count of elements                        : 492
Compression mode                         : Lossless
Stream size                              : 22.1 KiB (0%)
Title                                    : English Closed Captions
Language                                 : English
Default                                  : Yes
Forced                                   : No
beta
Anime DDL+NZB mirror
Current Time: 03/12/2021 12:53



About/FAQs

Discord