File Size396.8 MB (416,101,103 bytes)
DownloadClickNUpload | DownloadGG | DropAPK | MultiUp
  • BdUpload
  • DownAce
  • Fichier
  • FileCloud
  • Filerio
  • FilesCdn
  • IndiShare
  • Kbagi
  • Turbobit
  • UpToBox
  • Uppit
| PixelDrain | SolidFiles | ZippyShare
HashesCRC32: 23006C49, MD5: D2578C5D80DDA235A835B5F2F4E5BD35, SHA1: 343D383C38BE3A593C8BCFF963B9FC542BF820B3, SHA256: A99F3F867B00C54F0F6E31545D8D43285370572DA250C22D230016C427A8864F, ED2K: A93CDD86120AD369365FFEC675919945
Screenshots
screenshotscreenshotscreenshotscreenshotscreenshot
SubtitlesAll Attachments | English Closed Captions [eng, ASS]
Additional Info
General
Complete name                            : [Golumpa] Sorcerous Stabber Orphen - Battle of Kimluck - 03 (Majutsushi Orphen Hagure Tabi - Kimluck-hen) [FuniDub 720p x264 AAC] [23006C49].mkv
Format                                   : Matroska
Format version                           : Version 4
File size                                : 397 MiB
Duration                                 : 23 min 47 s
Overall bit rate                         : 2 333 kb/s
Writing application                      : https://www.youtube.com/watch?v=ct9MxZHakBQ
Writing library                          : https://www.youtube.com/watch?v=moZtoMP7HAA

Video
ID                                       : 1
Format                                   : AVC
Format/Info                              : Advanced Video Codec
Format profile                           : Main@L4
Format settings                          : CABAC / 4 Ref Frames
Format settings, CABAC                   : Yes
Format settings, ReFrames                : 4 frames
Codec ID                                 : V_MPEG4/ISO/AVC
Duration                                 : 23 min 47 s
Bit rate                                 : 2 074 kb/s
Width                                    : 1 280 pixels
Height                                   : 720 pixels
Display aspect ratio                     : 16:9
Frame rate mode                          : Constant
Frame rate                               : 23.976 (24000/1001) FPS
Color space                              : YUV
Chroma subsampling                       : 4:2:0
Bit depth                                : 8 bits
Scan type                                : Progressive
Bits/(Pixel*Frame)                       : 0.094
Stream size                              : 353 MiB (89%)
Title                                    : Funimation WEB-DL
Default                                  : Yes
Forced                                   : No
Color range                              : Limited
Matrix coefficients                      : BT.709

Audio
ID                                       : 2
Format                                   : AAC LC
Format/Info                              : Advanced Audio Codec Low Complexity
Codec ID                                 : A_AAC-2
Duration                                 : 23 min 47 s
Bit rate                                 : 256 kb/s
Channel(s)                               : 2 channels
Channel layout                           : L R
Sampling rate                            : 48.0 kHz
Frame rate                               : 46.875 FPS (1024 SPF)
Compression mode                         : Lossy
Stream size                              : 43.6 MiB (11%)
Title                                    : English Dub
Language                                 : English
Default                                  : Yes
Forced                                   : No

Text
ID                                       : 3
Format                                   : ASS
Codec ID                                 : S_TEXT/ASS
Codec ID/Info                            : Advanced Sub Station Alpha
Duration                                 : 23 min 20 s
Bit rate                                 : 136 b/s
Count of elements                        : 425
Compression mode                         : Lossless
Stream size                              : 23.3 KiB (0%)
Title                                    : English Closed Captions
Language                                 : English
Default                                  : Yes
Forced                                   : No
beta
Anime DDL+NZB mirror
Current Time: 19/10/2021 13:14



About/FAQs

Discord