[Golumpa] The Quintessential Quintuplets S2 - 11 (Go-toubun no Hanayome S2) [FuniDub 720p x264 AAC] [8EAE870D].mkv


File Size405.4 MB (425,120,191 bytes)
DownloadClickNUpload | DropAPK | MultiUp
  • BdUpload
  • DownAce
  • Fichier
  • FileCloud
  • Filerio
  • FilesCdn
  • IndiShare
  • Kbagi
  • Turbobit
  • UpToBox
  • Uppit
| SolidFiles | ZippyShare
HashesCRC32: 8EAE870D, MD5: B737977702A32DDEEEE75A4696B74C79, SHA1: 8443185E3017C3A17B1DEDB0E6B6398664B988BF, SHA256: A6CD471EEFCBA4AB5A2C32BF9B199A39644C9CEE51C0FC4A73A4DDBDAC4B0363, ED2K: 41905489237525A46AAB1DF44716D0A9
Screenshots
screenshotscreenshotscreenshotscreenshotscreenshot
SubtitlesAll Attachments | English Closed Captions [eng, ASS]
Additional Info
General
Complete name                            : [Golumpa] The Quintessential Quintuplets S2 - 11 (Go-toubun no Hanayome S2) [FuniDub 720p x264 AAC] [8EAE870D].mkv
Format                                   : Matroska
Format version                           : Version 4
File size                                : 405 MiB
Duration                                 : 24 min 15 s
Overall bit rate                         : 2 337 kb/s
Writing application                      : https://www.youtube.com/watch?v=JaZpmHC3LRg
Writing library                          : https://www.youtube.com/watch?v=moZtoMP7HAA

Video
ID                                       : 1
Format                                   : AVC
Format/Info                              : Advanced Video Codec
Format profile                           : Main@L4
Format settings                          : CABAC / 4 Ref Frames
Format settings, CABAC                   : Yes
Format settings, ReFrames                : 4 frames
Codec ID                                 : V_MPEG4/ISO/AVC
Duration                                 : 24 min 15 s
Bit rate                                 : 2 079 kb/s
Width                                    : 1 280 pixels
Height                                   : 720 pixels
Display aspect ratio                     : 16:9
Frame rate mode                          : Constant
Frame rate                               : 23.976 (24000/1001) FPS
Color space                              : YUV
Chroma subsampling                       : 4:2:0
Bit depth                                : 8 bits
Scan type                                : Progressive
Bits/(Pixel*Frame)                       : 0.094
Stream size                              : 361 MiB (89%)
Title                                    : Funimation WEB-DL
Default                                  : Yes
Forced                                   : No
Color range                              : Limited
Matrix coefficients                      : BT.709

Audio
ID                                       : 2
Format                                   : AAC LC
Format/Info                              : Advanced Audio Codec Low Complexity
Codec ID                                 : A_AAC-2
Duration                                 : 24 min 15 s
Bit rate                                 : 256 kb/s
Channel(s)                               : 2 channels
Channel layout                           : L R
Sampling rate                            : 48.0 kHz
Frame rate                               : 46.875 FPS (1024 SPF)
Compression mode                         : Lossy
Stream size                              : 44.4 MiB (11%)
Title                                    : English Dub
Language                                 : English
Default                                  : Yes
Forced                                   : No

Text
ID                                       : 3
Format                                   : ASS
Codec ID                                 : S_TEXT/ASS
Codec ID/Info                            : Advanced Sub Station Alpha
Duration                                 : 24 min 1 s
Bit rate                                 : 154 b/s
Count of elements                        : 519
Compression mode                         : Lossless
Stream size                              : 27.2 KiB (0%)
Title                                    : English Closed Captions
Language                                 : English
Default                                  : Yes
Forced                                   : No
beta
Anime DDL+NZB mirror
Current Time: 26/07/2021 22:16



About/FAQs