File Size440.7 MB (462,095,325 bytes)
DownloadClickNUpload | DownloadGG | DropAPK | MultiUp
  • BdUpload
  • DownAce
  • Fichier
  • FileCloud
  • Filerio
  • FilesCdn
  • IndiShare
  • Kbagi
  • Turbobit
  • UpToBox
  • Uppit
| SolidFiles | ZippyShare
HashesCRC32: 2E5D0D60, MD5: FC104FC3EFECC73CB06F4B9E5FE7201B, SHA1: 779D0CD9E42BCA4D8838EEDB4234A213D56BBD2B, SHA256: BFE3CC38C0D9705DDEFD016930A1A2A1FBDFD98CC8B6EE0322659BF26583CBD1, ED2K: 17CAFBF0596CF8D91AE89BBFF5338F98
Screenshots
screenshotscreenshotscreenshotscreenshotscreenshot
Additional Info
General
Complete name                            : [Golumpa] Miss Kobayashi's Dragon Maid S - 04 (Kobayashi-san Chi no Maid Dragon S) [FuniDub 720p x264 AAC] [2E5D0D60].mkv
Format                                   : Matroska
Format version                           : Version 4
File size                                : 441 MiB
Duration                                 : 23 min 47 s
Overall bit rate                         : 2 590 kb/s
Writing application                      : https://youtu.be/JaZpmHC3LRg
Writing library                          : https://www.tiktok.com/@jnizmoo/video/6971071893214383366

Video
ID                                       : 1
Format                                   : AVC
Format/Info                              : Advanced Video Codec
Format profile                           : High@L4
Format settings                          : CABAC / 3 Ref Frames
Format settings, CABAC                   : Yes
Format settings, ReFrames                : 3 frames
Codec ID                                 : V_MPEG4/ISO/AVC
Duration                                 : 23 min 47 s
Bit rate                                 : 2 332 kb/s
Width                                    : 1 280 pixels
Height                                   : 720 pixels
Display aspect ratio                     : 16:9
Frame rate mode                          : Constant
Frame rate                               : 23.976 (24000/1001) FPS
Color space                              : YUV
Chroma subsampling                       : 4:2:0
Bit depth                                : 8 bits
Scan type                                : Progressive
Bits/(Pixel*Frame)                       : 0.106
Stream size                              : 397 MiB (90%)
Title                                    : Funimation WEB-DL
Default                                  : Yes
Forced                                   : No
Color range                              : Limited
Matrix coefficients                      : BT.709

Audio
ID                                       : 2
Format                                   : AAC LC
Format/Info                              : Advanced Audio Codec Low Complexity
Codec ID                                 : A_AAC-2
Duration                                 : 23 min 47 s
Bit rate                                 : 256 kb/s
Channel(s)                               : 2 channels
Channel layout                           : L R
Sampling rate                            : 48.0 kHz
Frame rate                               : 46.875 FPS (1024 SPF)
Compression mode                         : Lossy
Stream size                              : 43.6 MiB (10%)
Title                                    : English Dub
Language                                 : English
Default                                  : Yes
Forced                                   : No
beta
Anime DDL+NZB mirror
Current Time: 06/12/2021 14:59



About/FAQs

Discord