[Golumpa] MARS RED - 07 [FuniDub 720p x264 AAC] [2303F162].mkv


File Size376.3 MB (394,577,937 bytes)
DownloadAnonFiles | ClickNUpload | DropAPK | Free | MultiUp
  • BdUpload
  • DownAce
  • Fichier
  • FileCloud
  • Filerio
  • FilesCdn
  • IndiShare
  • Kbagi
  • Turbobit
  • UpToBox
  • Uppit
| SolidFiles | ZippyShare
HashesCRC32: 2303F162, MD5: 92D9EFC3A0A5955BA0A23C64D7C0F503, SHA1: 031A6C1AA3940FF8288D68F482DCFB794483D31D, SHA256: F6D2A326550DF032E4B78F24D1C94485C5B012BA0B4050AD3E077AD6B5D85BA9, ED2K: 8C87EA453C5675BB24353F40C745BAF7
Screenshots
screenshotscreenshotscreenshotscreenshotscreenshot
SubtitlesAll Attachments | English Closed Captions [eng, ASS]
Additional Info
General
Complete name                            : [Golumpa] MARS RED - 07 [FuniDub 720p x264 AAC] [2303F162].mkv
Format                                   : Matroska
Format version                           : Version 4
File size                                : 376 MiB
Duration                                 : 23 min 47 s
Overall bit rate                         : 2 212 kb/s
Writing application                      : https://www.youtube.com/watch?v=moZtoMP7HAA
Writing library                          : https://www.youtube.com/watch?v=ct9MxZHakBQ

Video
ID                                       : 1
Format                                   : AVC
Format/Info                              : Advanced Video Codec
Format profile                           : Main@L4
Format settings                          : CABAC / 4 Ref Frames
Format settings, CABAC                   : Yes
Format settings, ReFrames                : 4 frames
Codec ID                                 : V_MPEG4/ISO/AVC
Duration                                 : 23 min 47 s
Bit rate                                 : 1 954 kb/s
Width                                    : 1 280 pixels
Height                                   : 720 pixels
Display aspect ratio                     : 16:9
Frame rate mode                          : Constant
Frame rate                               : 23.976 (24000/1001) FPS
Color space                              : YUV
Chroma subsampling                       : 4:2:0
Bit depth                                : 8 bits
Scan type                                : Progressive
Bits/(Pixel*Frame)                       : 0.088
Stream size                              : 332 MiB (88%)
Title                                    : Funimation WEB-DL
Default                                  : Yes
Forced                                   : No
Color range                              : Limited
Matrix coefficients                      : BT.709

Audio
ID                                       : 2
Format                                   : AAC LC
Format/Info                              : Advanced Audio Codec Low Complexity
Codec ID                                 : A_AAC-2
Duration                                 : 23 min 47 s
Bit rate                                 : 256 kb/s
Channel(s)                               : 2 channels
Channel layout                           : L R
Sampling rate                            : 48.0 kHz
Frame rate                               : 46.875 FPS (1024 SPF)
Compression mode                         : Lossy
Stream size                              : 43.6 MiB (12%)
Title                                    : English Dub
Language                                 : English
Default                                  : Yes
Forced                                   : No

Text
ID                                       : 3
Format                                   : ASS
Codec ID                                 : S_TEXT/ASS
Codec ID/Info                            : Advanced Sub Station Alpha
Duration                                 : 19 min 45 s
Bit rate                                 : 127 b/s
Count of elements                        : 371
Compression mode                         : Lossless
Stream size                              : 18.5 KiB (0%)
Title                                    : English Closed Captions
Language                                 : English
Default                                  : Yes
Forced                                   : No
beta
Anime DDL+NZB mirror
Current Time: 24/09/2021 11:57



About/FAQs