File Size400.6 MB (420,090,241 bytes)
DownloadClickNUpload | DropAPK | MultiUp
  • BdUpload
  • DownAce
  • Fichier
  • FileCloud
  • Filerio
  • FilesCdn
  • IndiShare
  • Kbagi
  • Turbobit
  • UpToBox
  • Uppit
| SolidFiles | ZippyShare
HashesCRC32: E734F47F, MD5: 02E1DE990F9542E0D06617B82607AB5B, SHA1: 1FAB002C1D02852080A3C08EC1951F0839962A1D, SHA256: 9127B0D37EC3E6E6685D5929EDD813C02E83A41DF5BC9912539D5026FE1F1DF1, ED2K: F9E5AEF95CD7AB2845CEA08C77BAA555
Screenshots
screenshotscreenshotscreenshotscreenshotscreenshot
Additional Info
General
Complete name                            : [Golumpa] Cells at Work!! (S2) - 07 (Hataraku Saibou!!) [FuniDub 720p x264 AAC] [E734F47F].mkv
Format                                   : Matroska
Format version                           : Version 4
File size                                : 401 MiB
Duration                                 : 23 min 47 s
Overall bit rate                         : 2 355 kb/s
Writing application                      : https://www.youtube.com/watch?v=_t46p_nFruU
Writing library                          : https://www.youtube.com/watch?v=oNxZjazKCIw

Video
ID                                       : 1
Format                                   : AVC
Format/Info                              : Advanced Video Codec
Format profile                           : Main@L4
Format settings                          : CABAC / 4 Ref Frames
Format settings, CABAC                   : Yes
Format settings, ReFrames                : 4 frames
Codec ID                                 : V_MPEG4/ISO/AVC
Duration                                 : 23 min 46 s
Bit rate                                 : 2 097 kb/s
Width                                    : 1 280 pixels
Height                                   : 720 pixels
Display aspect ratio                     : 16:9
Frame rate mode                          : Constant
Frame rate                               : 23.976 (24000/1001) FPS
Color space                              : YUV
Chroma subsampling                       : 4:2:0
Bit depth                                : 8 bits
Scan type                                : Progressive
Bits/(Pixel*Frame)                       : 0.095
Stream size                              : 357 MiB (89%)
Title                                    : Funimation WEB-DL
Default                                  : Yes
Forced                                   : No
Color range                              : Limited
Matrix coefficients                      : BT.709

Audio
ID                                       : 2
Format                                   : AAC LC
Format/Info                              : Advanced Audio Codec Low Complexity
Codec ID                                 : A_AAC-2
Duration                                 : 23 min 47 s
Bit rate                                 : 256 kb/s
Channel(s)                               : 2 channels
Channel layout                           : L R
Sampling rate                            : 48.0 kHz
Frame rate                               : 46.875 FPS (1024 SPF)
Compression mode                         : Lossy
Stream size                              : 43.5 MiB (11%)
Title                                    : English Dub
Language                                 : English
Default                                  : Yes
Forced                                   : No
beta
Anime DDL+NZB mirror
Current Time: 27/07/2021 00:22



About/FAQs