File Size269.5 MB (282,539,711 bytes)
DownloadClickNUpload | Go4Up | Jheberg | MultiUp | OpenLoad | Sendspace | SolidFiles | Upfile.mobi
HashesCRC32: 8F1585A6, MD5: 56574B41AD27C5E0129CEAA876F5E7BF, SHA1: 861A730D78D6B3D97DB27424DDE722A1763BCDD1, SHA256: D2A19B7553C8CC07796797D74894A310D784EC18C678CA8388A2669986750601, ED2K: 22D87F215CD2C70F2E226150BB3B1D43
Screenshots
screenshotscreenshotscreenshotscreenshotscreenshot
SubtitlesAll Attachments | eng [ASS]
Additional Info
General
Unique ID                                : 205941970759289466782571840420519133441 (0x9AEEFB179E66C66AB6750ACCD8F8C101)
Complete name                            : [Glue] Net-juu no Susume - 10 [8F1585A6].mkv
Format                                   : Matroska
Format version                           : Version 4 / Version 2
File size                                : 269 MiB
Duration                                 : 23 min 25 s
Overall bit rate                         : 1 609 kb/s
Encoded date                             : UTC 2017-12-09 15:58:38
Writing application                      : mkvmerge v9.9.0 ('Pick Up') 32bit
Writing library                          : libebml v1.3.4 + libmatroska v1.4.5
Attachments                              : Aero Matics Bold.ttf / AGENCYB.TTF / A-OTF-FUTOMINA101PR5-BOLD.OTF / A-OTF-Jun34Pro-Medium.otf / A-OTF-Jun501Pro-Bold.otf / FOTManyoSoshoStdStripped-EB2 (1)_0.otf / SafranDPSemiBoldFinal.ttf / SafranDPSemiBoldItalicFinalv2.ttf

Video
ID                                       : 1
Format                                   : AVC
Format/Info                              : Advanced Video Codec
Format profile                           : High 10@L5
Format settings, CABAC                   : Yes
Format settings, ReFrames                : 16 frames
Codec ID                                 : V_MPEG4/ISO/AVC
Duration                                 : 23 min 25 s
Bit rate                                 : 1 380 kb/s
Width                                    : 1 280 pixels
Height                                   : 720 pixels
Display aspect ratio                     : 16:9
Frame rate mode                          : Constant
Frame rate                               : 23.976 (24000/1001) FPS
Color space                              : YUV
Chroma subsampling                       : 4:2:0
Bit depth                                : 10 bits
Scan type                                : Progressive
Bits/(Pixel*Frame)                       : 0.062
Stream size                              : 231 MiB (86%)
Writing library                          : x264 core 152 r2851+58 429492e t_mod_Custom [10-bit@all X86_64]
Encoding settings                        : cabac=1 / ref=16 / deblock=1:0:0 / analyse=0x3:0x113 / me=umh / subme=10 / psy=1 / fade_compensate=0.70 / psy_rd=0.75:0.05 / mixed_ref=1 / me_range=24 / chroma_me=1 / trellis=2 / 8x8dct=1 / cqm=0 / deadzone=21,11 / fast_pskip=1 / chroma_qp_offset=-3 / threads=12 / lookahead_threads=3 / sliced_threads=0 / nr=0 / decimate=1 / interlaced=0 / bluray_compat=0 / constrained_intra=0 / fgo=0 / bframes=10 / b_pyramid=2 / b_adapt=2 / b_bias=0 / direct=1 / weightb=1 / open_gop=0 / weightp=2 / keyint=250 / keyint_min=23 / scenecut=40 / intra_refresh=0 / rc_lookahead=60 / rc=crf / mbtree=1 / crf=15.0000 / qcomp=0.70 / qpmin=0:0:0 / qpmax=81:81:81 / qpstep=4 / ip_ratio=1.40 / aq=3:0.75 / aq-sensitivity=10.00 / aq-factor=1.00:1.00:1.00 / aq2=0 / aq3=0
Language                                 : Japanese
Default                                  : Yes
Forced                                   : No

Audio
ID                                       : 2
Format                                   : AAC
Format/Info                              : Advanced Audio Codec
Format profile                           : LC
Codec ID                                 : A_AAC
Duration                                 : 23 min 25 s
Bit rate                                 : 128 kb/s
Channel(s)                               : 2 channels
Channel positions                        : Front: L R
Sampling rate                            : 44.1 kHz
Frame rate                               : 43.066 FPS (1024 spf)
Compression mode                         : Lossy
Stream size                              : 21.4 MiB (8%)
Language                                 : Japanese
Default                                  : Yes
Forced                                   : No

Text
ID                                       : 3
Format                                   : ASS
Codec ID                                 : S_TEXT/ASS
Codec ID/Info                            : Advanced Sub Station Alpha
Duration                                 : 22 min 56 s
Bit rate                                 : 181 b/s
Count of elements                        : 407
Compression mode                         : Lossless
Stream size                              : 30.6 KiB (0%)
Language                                 : English
Default                                  : Yes
Forced                                   : No

Menu
00:00:00.033                             : en:OP
00:01:30.020                             : en:Episode
00:21:55.000                             : en:ED
beta
Anime DDL+NZB mirror
Current Time: 25/05/2024 19:39



About/FAQs

Discord