File Size246.1 MB (258,059,953 bytes)
DownloadClickNUpload | Go4Up | Jheberg | MultiUp
  • ClickNupload
  • Fichier
  • Filerio
  • Free
  • Fufox
  • HugeFiles
  • Mightyupload
  • ToutBox
  • Turbobit
  • UpToBox
  • Uplea
  • UploadBaz
  • Uploadable
  • Uploaded
  • Uppit
  • Userscloud
| OpenLoad | Sendspace | SolidFiles
HashesCRC32: 9ECF67B3, MD5: A0DA427AB39F2BBF384B03464266D0E5, SHA1: 76B6A5E490508557368C738F25E3E5DECE42D563, SHA256: CB00C5ADFA85D2E76C338F9E5B3138CB90A5858AE1C94C55D747A9E74E6AB599, ED2K: 105224D906FA7239668C9B3DCC69B3B7
Screenshots
screenshotscreenshotscreenshotscreenshotscreenshot
SubtitlesAll Attachments | eng [ASS]
Additional Info
General
Unique ID                                : 235277110126326891460890293526312291295 (0xB100B92127113A8288EBE47C1A3C8BDF)
Complete name                            : [Glue] Net-juu no Susume - 01 [9ECF67B3].mkv
Format                                   : Matroska
Format version                           : Version 4 / Version 2
File size                                : 246 MiB
Duration                                 : 23 min 40 s
Overall bit rate                         : 1 454 kb/s
Encoded date                             : UTC 2017-10-11 20:06:59
Writing application                      : mkvmerge v9.9.0 ('Pick Up') 32bit
Writing library                          : libebml v1.3.4 + libmatroska v1.4.5
Attachments                              : AbelBecker Bold_0.ttf / Aero Matics Bold.ttf / AeroDB Normal.ttf / A-OTF-FUTOMINA101PR5-BOLD.OTF / A-OTF-Jun501Pro-Bold.otf / AXIS Std B.otf / FOT-DotGothic12Std-M.otf / FOTManyoSoshoStdStripped-EB2 (1)_0.otf / HannaHandwriting.ttf / SafranDPSemiBoldFinal.ttf / SafranDPSemiBoldItalicFinalv2.ttf

Video
ID                                       : 1
Format                                   : AVC
Format/Info                              : Advanced Video Codec
Format profile                           : High 10@L5
Format settings, CABAC                   : Yes
Format settings, ReFrames                : 16 frames
Codec ID                                 : V_MPEG4/ISO/AVC
Duration                                 : 23 min 40 s
Bit rate                                 : 1 230 kb/s
Width                                    : 1 280 pixels
Height                                   : 720 pixels
Display aspect ratio                     : 16:9
Frame rate mode                          : Constant
Frame rate                               : 23.976 (24000/1001) FPS
Color space                              : YUV
Chroma subsampling                       : 4:2:0
Bit depth                                : 10 bits
Scan type                                : Progressive
Bits/(Pixel*Frame)                       : 0.056
Stream size                              : 208 MiB (85%)
Writing library                          : x264 core 152 r2851+58 429492e t_mod_Custom [10-bit@all X86_64]
Encoding settings                        : cabac=1 / ref=16 / deblock=1:0:0 / analyse=0x3:0x113 / me=umh / subme=10 / psy=1 / fade_compensate=0.70 / psy_rd=0.75:0.05 / mixed_ref=1 / me_range=24 / chroma_me=1 / trellis=2 / 8x8dct=1 / cqm=0 / deadzone=21,11 / fast_pskip=1 / chroma_qp_offset=-3 / threads=12 / lookahead_threads=3 / sliced_threads=0 / nr=0 / decimate=1 / interlaced=0 / bluray_compat=0 / constrained_intra=0 / fgo=0 / bframes=10 / b_pyramid=2 / b_adapt=2 / b_bias=0 / direct=1 / weightb=1 / open_gop=0 / weightp=2 / keyint=250 / keyint_min=23 / scenecut=40 / intra_refresh=0 / rc_lookahead=60 / rc=crf / mbtree=1 / crf=17.0000 / qcomp=0.70 / qpmin=0:0:0 / qpmax=81:81:81 / qpstep=4 / ip_ratio=1.40 / aq=3:0.75 / aq-sensitivity=10.00 / aq-factor=1.00:1.00:1.00 / aq2=0 / aq3=0
Language                                 : Japanese
Default                                  : Yes
Forced                                   : No

Audio
ID                                       : 2
Format                                   : AAC
Format/Info                              : Advanced Audio Codec
Format profile                           : LC
Codec ID                                 : A_AAC
Duration                                 : 23 min 40 s
Bit rate                                 : 128 kb/s
Channel(s)                               : 2 channels
Channel positions                        : Front: L R
Sampling rate                            : 44.1 kHz
Frame rate                               : 43.066 FPS (1024 spf)
Compression mode                         : Lossy
Stream size                              : 21.7 MiB (9%)
Language                                 : Japanese
Default                                  : Yes
Forced                                   : No

Text
ID                                       : 3
Format                                   : ASS
Codec ID                                 : S_TEXT/ASS
Codec ID/Info                            : Advanced Sub Station Alpha
Duration                                 : 23 min 25 s
Bit rate                                 : 1 061 b/s
Count of elements                        : 1634
Compression mode                         : Lossless
Stream size                              : 182 KiB (0%)
Language                                 : English
Default                                  : Yes
Forced                                   : No

Menu
00:00:00.033                             : en:Intro
00:01:30.020                             : en:Episode
00:21:55.000                             : en:ED
00:23:25.000                             : en:Preview
beta
Anime DDL+NZB mirror
Current Time: 20/07/2024 03:01



About/FAQs

Discord