[Glenn] Hora, Mimi ga Mieteru yo! 2 - 11 [8DA378CF].mkv


File Size45.91 MB (48,135,318 bytes)
DownloadClickNUpload | Jheberg | MultiUp
  • BdUpload
  • DownAce
  • Fichier
  • FileCloud
  • Filerio
  • FilesCdn
  • IndiShare
  • Kbagi
  • Turbobit
  • UpToBox
  • Uppit
| OpenLoad | Sendspace | SolidFiles | ZippyShare
HashesCRC32: 8DA378CF, MD5: 56A2FDFB0D2150E84D47EDA2E43CF395, SHA1: 127C28AB25CEC84CB33F5027444D3007C5F79ECF, SHA256: C55F0191CFAE4722BB3C98E45AA9FF1D8ADA4A4EA3BF4F928AA32437B50D94E9, ED2K: 274B73E2937D07846B25D925960A25FD
Screenshots
screenshotscreenshotscreenshot
SubtitlesAll Attachments | und [ASS]
Additional Info
General
Unique ID                                : 157812635018283705684829353552102563856 (0x76B99BA1DA774D2CF94F2E24BB182010)
Complete name                            : [Glenn] Hora, Mimi ga Mieteru yo! 2 - 11 [8DA378CF].mkv
Format                                   : Matroska
Format version                           : Version 4
File size                                : 45.9 MiB
Duration                                 : 3 min 0 s
Overall bit rate                         : 2 137 kb/s
Encoded date                             : UTC 2019-06-14 15:26:01
Writing application                      : mkvmerge v28.2.0 ('The Awakening') 64-bit
Writing library                          : libebml v1.3.6 + libmatroska v1.4.9
Attachments                              : ARNORG.TTF / GandhiSans-Bold.ttf / GandhiSans-BoldItalic.ttf

Video
ID                                       : 1
Format                                   : AVC
Format/Info                              : Advanced Video Codec
Format profile                           : Main@L4.1
Format settings                          : CABAC / 4 Ref Frames
Format settings, CABAC                   : Yes
Format settings, ReFrames                : 4 frames
Codec ID                                 : V_MPEG4/ISO/AVC
Duration                                 : 3 min 0 s
Bit rate                                 : 1 919 kb/s
Width                                    : 1 280 pixels
Height                                   : 720 pixels
Display aspect ratio                     : 16:9
Frame rate mode                          : Constant
Frame rate                               : 23.976 (24000/1001) FPS
Color space                              : YUV
Chroma subsampling                       : 4:2:0
Bit depth                                : 8 bits
Scan type                                : Progressive
Bits/(Pixel*Frame)                       : 0.087
Stream size                              : 41.2 MiB (90%)
Writing library                          : x264 core 157 r2935 545de2f
Encoding settings                        : cabac=1 / ref=3 / deblock=1:0:0 / analyse=0x1:0x111 / me=hex / subme=7 / psy=1 / psy_rd=1.00:0.00 / mixed_ref=1 / me_range=16 / chroma_me=1 / trellis=1 / 8x8dct=0 / cqm=0 / deadzone=21,11 / fast_pskip=1 / chroma_qp_offset=-2 / threads=22 / lookahead_threads=3 / sliced_threads=0 / nr=0 / decimate=1 / interlaced=0 / bluray_compat=0 / constrained_intra=0 / bframes=3 / b_pyramid=2 / b_adapt=1 / b_bias=0 / direct=1 / weightb=1 / open_gop=0 / weightp=2 / keyint=240 / keyint_min=1 / scenecut=40 / intra_refresh=0 / rc_lookahead=40 / rc=crf / mbtree=1 / crf=20.0 / qcomp=0.60 / qpmin=0 / qpmax=69 / qpstep=4 / ip_ratio=1.40 / aq=1:1.50
Language                                 : English
Default                                  : Yes
Forced                                   : No
Color range                              : Limited
Color primaries                          : BT.709
Transfer characteristics                 : BT.709
Matrix coefficients                      : BT.709

Audio
ID                                       : 2
Format                                   : AAC LC
Format/Info                              : Advanced Audio Codec Low Complexity
Codec ID                                 : A_AAC-2
Duration                                 : 3 min 0 s
Bit rate                                 : 205 kb/s
Channel(s)                               : 2 channels
Channel layout                           : L R
Sampling rate                            : 48.0 kHz
Frame rate                               : 46.875 FPS (1024 SPF)
Compression mode                         : Lossy
Delay relative to video                  : -83 ms
Stream size                              : 4.40 MiB (10%)
Language                                 : Japanese
Default                                  : Yes
Forced                                   : No

Text
ID                                       : 3
Format                                   : ASS
Codec ID                                 : S_TEXT/ASS
Codec ID/Info                            : Advanced Sub Station Alpha
Duration                                 : 2 min 45 s
Bit rate                                 : 109 b/s
Count of elements                        : 42
Compression mode                         : Lossless
Stream size                              : 2.21 KiB (0%)
Default                                  : Yes
Forced                                   : No

Menu
00:00:00.000                             : en:OP
00:00:10.610                             : en:Episode
beta
Anime DDL+NZB mirror
Current Time: 17/11/2019 22:13



About/FAQs