[GlassHouse]_Black_Clover_-_70_(TVA 720p Hi444PP AAC)[449FD1E2].mkv


File Size477.5 MB (500,710,074 bytes)
DownloadClickNUpload | Go4Up | Jheberg | MultiUp | OpenLoad | ZippyShare
Sendspace: Part1, Part2
HashesCRC32: 449FD1E2, MD5: A7729204A6852E3E94B32E92CD995751, SHA1: 9417D5FC933600591987E65459BDF321ED0D12B1, SHA256: 51096E36C3A247634B1E6A7C8A4FBFF839E25BF5FB995D9B604BDB95D4A34FE4, ED2K: DE566B9E0EEFFBA3AC40FE7200F586B9
Screenshots
screenshotscreenshotscreenshotscreenshotscreenshot
SubtitlesAll Attachments | und [ASS]
Additional Info
General
Unique ID                                : 170141698723875971932440652550357862199 (0x8000196789DC69DC6364D8C6C1634737)
Complete name                            : [GlassHouse]_Black_Clover_-_70_(TVA 720p Hi444PP AAC)[449FD1E2].mkv
Format                                   : Matroska
Format version                           : Version 4
File size                                : 478 MiB
Duration                                 : 23 min 50 s
Overall bit rate                         : 2 801 kb/s
Encoded date                             : UTC 2019-03-02 15:13:32
Writing application                      : mkvmerge v27.0.0 ('Metropolis') 32-bit
Writing library                          : libebml v1.3.6 + libmatroska v1.4.9
Attachments                              : erasdus0_0.ttf / LBRITED_0.TTF / monbaiti_0.ttf / Philosopher-Regular_0.ttf / Square (demo ver.)_0.ttf / erasdus0_0.ttf / monbaiti_0.ttf

Video
ID                                       : 1
Format                                   : AVC
Format/Info                              : Advanced Video Codec
Format profile                           : High 4:4:4 Predictive@L5
Format settings                          : CABAC / 16 Ref Frames
Format settings, CABAC                   : Yes
Format settings, ReFrames                : 16 frames
Codec ID                                 : V_MPEG4/ISO/AVC
Duration                                 : 23 min 49 s
Bit rate                                 : 2 598 kb/s
Width                                    : 1 280 pixels
Height                                   : 720 pixels
Display aspect ratio                     : 16:9
Frame rate mode                          : Constant
Frame rate                               : 23.976 (24000/1001) FPS
Color space                              : YUV
Chroma subsampling                       : 4:4:4
Bit depth                                : 10 bits
Scan type                                : Progressive
Bits/(Pixel*Frame)                       : 0.118
Stream size                              : 443 MiB (93%)
Writing library                          : x264 core 152 r2851kMod ba24899
Encoding settings                        : cabac=1 / ref=16 / deblock=1:-1:-1 / analyse=0x1:0x131 / me=umh / subme=10 / psy=1 / fade_compensate=0.00 / psy_rd=1.00:0.15 / mixed_ref=1 / me_range=24 / chroma_me=1 / trellis=2 / 8x8dct=0 / cqm=0 / deadzone=21,11 / fast_pskip=0 / chroma_qp_offset=3 / threads=22 / lookahead_threads=5 / sliced_threads=0 / nr=0 / decimate=1 / interlaced=0 / bluray_compat=0 / constrained_intra=0 / bframes=16 / b_pyramid=2 / b_adapt=2 / b_bias=0 / direct=3 / weightb=1 / open_gop=0 / weightp=2 / keyint=250 / keyint_min=23 / scenecut=40 / intra_refresh=0 / rc_lookahead=60 / rc=crf / mbtree=1 / crf=17.0000 / qcomp=0.80 / qpmin=0 / qpmax=81 / qpstep=4 / ip_ratio=1.40 / aq=3:1.00
Default                                  : Yes
Forced                                   : No
Color range                              : Limited
Color primaries                          : BT.709
Transfer characteristics                 : BT.709
Matrix coefficients                      : BT.709

Audio
ID                                       : 2
Format                                   : AAC LC
Format/Info                              : Advanced Audio Codec Low Complexity
Codec ID                                 : A_AAC-2
Duration                                 : 23 min 49 s
Bit rate                                 : 192 kb/s
Channel(s)                               : 2 channels
Channel layout                           : L R
Sampling rate                            : 48.0 kHz
Frame rate                               : 46.875 FPS (1024 SPF)
Compression mode                         : Lossy
Stream size                              : 32.2 MiB (7%)
Default                                  : Yes
Forced                                   : No

Text
ID                                       : 3
Format                                   : ASS
Codec ID                                 : S_TEXT/ASS
Codec ID/Info                            : Advanced Sub Station Alpha
Duration                                 : 23 min 50 s
Bit rate                                 : 4 467 b/s
Count of elements                        : 4760
Compression mode                         : Lossless
Stream size                              : 780 KiB (0%)
Default                                  : Yes
Forced                                   : No
beta
Anime DDL+NZB mirror
Current Time: 18/09/2019 21:03



About/FAQs