File Size462.5 MB (484,945,802 bytes)
DownloadClickNUpload | DropAPK | Jheberg
  • 1Fichier
  • 2Giga
  • BDupload
  • ClicknUpload
  • Filerio
  • FilesCDN
  • FilesUpload
  • Free
  • MegaUp
  • Nitroflare
  • Openload
  • ShareOnline
  • Turbobit
  • Tusfiles
  • Uppit
  • Uptobox
  • ddlTo
| MultiUp
  • BdUpload
  • DownAce
  • Fichier
  • FileCloud
  • Filerio
  • FilesCdn
  • IndiShare
  • Kbagi
  • Turbobit
  • UpToBox
  • Uppit
| SolidFiles | ZippyShare
Sendspace: Part1, Part2
HashesCRC32: 9AA0C64B, MD5: 3922E3E04BB5C8DF73A28F7B7601F8B9, SHA1: 6E13BA3A8DB441222212861F67768647B0CC1F81, SHA256: 692E33F2FF4F9BAB96B2EBB047A975CC88E1A4F51448236A6A94F82E41290C60, ED2K: C1E5D180F4C8F2D419E32E254FC8BF89
Screenshots
screenshotscreenshotscreenshotscreenshotscreenshot
SubtitlesAll Attachments | No Honorifics [eng, ASS]
Additional Info
General
Unique ID                                : 30309225295325299355210963400647763538 (0x16CD582E72C2E6F9FBEB61057DC3E652)
Complete name                            : [GJM] One Punch Man S2 - OVA3 (BD 1080p) [9AA0C64B].mkv
Format                                   : Matroska
Format version                           : Version 4
File size                                : 462 MiB
Duration                                 : 12 min 0 s
Overall bit rate                         : 5 388 kb/s
Encoded date                             : UTC 2020-03-06 13:52:50
Writing application                      : mkvmerge v43.0.0 ('The Quartermaster') 32-bit
Writing library                          : libebml v1.3.10 + libmatroska v1.5.2
Attachments                              : HLBRUSH3BK.TTF / MARKERSCRIBBLES.OTF / SERANGKAIAN-PATTERN.TTF / TOXIA.TTF / VOLKSWAGEN-BOLD.TTF / XANGDASHINY.TTF / ALBATROSS.TTF / BRUSHSTROKES.TTF / COMICBOOK.TTF / DEATHRATTLEBB.TTF / DKLONGREACH-REGULAR.OTF / GANDHISANS-BOLD.OTF / GANDHISANS-BOLDITALIC.OTF

Video
ID                                       : 1
Format                                   : AVC
Format/Info                              : Advanced Video Codec
Format profile                           : High 10@L5.1
Format settings                          : CABAC / 16 Ref Frames
Format settings, CABAC                   : Yes
Format settings, ReFrames                : 16 frames
Codec ID                                 : V_MPEG4/ISO/AVC
Duration                                 : 12 min 0 s
Bit rate                                 : 5 105 kb/s
Width                                    : 1 920 pixels
Height                                   : 1 080 pixels
Display aspect ratio                     : 16:9
Frame rate mode                          : Constant
Frame rate                               : 23.976 (24000/1001) FPS
Color space                              : YUV
Chroma subsampling                       : 4:2:0
Bit depth                                : 10 bits
Scan type                                : Progressive
Bits/(Pixel*Frame)                       : 0.103
Stream size                              : 438 MiB (95%)
Writing library                          : x264 core 155 r2893 b00bcaf
Encoding settings                        : cabac=1 / ref=16 / deblock=1:-2:-2 / analyse=0x3:0x113 / me=umh / subme=10 / psy=1 / psy_rd=0.80:0.00 / mixed_ref=1 / me_range=32 / chroma_me=1 / trellis=2 / 8x8dct=1 / cqm=0 / deadzone=21,11 / fast_pskip=0 / chroma_qp_offset=-2 / threads=24 / lookahead_threads=6 / sliced_threads=0 / nr=0 / decimate=0 / interlaced=0 / bluray_compat=0 / constrained_intra=0 / bframes=16 / b_pyramid=2 / b_adapt=2 / b_bias=0 / direct=3 / weightb=1 / open_gop=0 / weightp=2 / keyint=240 / keyint_min=23 / scenecut=40 / intra_refresh=0 / rc_lookahead=48 / rc=crf / mbtree=1 / crf=16.0 / qcomp=0.70 / qpmin=0 / qpmax=81 / qpstep=4 / ip_ratio=1.40 / aq=3:0.90
Language                                 : Japanese
Default                                  : Yes
Forced                                   : No
Color range                              : Limited
Matrix coefficients                      : BT.709

Audio
ID                                       : 2
Format                                   : AAC LC
Format/Info                              : Advanced Audio Codec Low Complexity
Codec ID                                 : A_AAC-2
Duration                                 : 12 min 0 s
Bit rate                                 : 255 kb/s
Channel(s)                               : 2 channels
Channel layout                           : L R
Sampling rate                            : 48.0 kHz
Frame rate                               : 46.875 FPS (1024 SPF)
Compression mode                         : Lossy
Stream size                              : 21.9 MiB (5%)
Language                                 : Japanese
Default                                  : Yes
Forced                                   : No

Text
ID                                       : 3
Format                                   : ASS
Codec ID                                 : S_TEXT/ASS
Codec ID/Info                            : Advanced Sub Station Alpha
Duration                                 : 11 min 50 s
Bit rate                                 : 5 322 b/s
Count of elements                        : 633
Compression mode                         : Lossless
Stream size                              : 461 KiB (0%)
Title                                    : No Honorifics
Language                                 : English
Default                                  : Yes
Forced                                   : No

Menu
00:00:00.000                             : en:Main Episode
00:10:30.088                             : en:ED
beta
Anime DDL+NZB mirror
Current Time: 25/05/2024 07:30



About/FAQs

Discord