File Size1.227 GB (1,317,237,871 bytes)
DownloadClickNUpload | Jheberg
MultiUp: Part1
  • BdUpload
  • DownAce
  • Fichier
  • FileCloud
  • Filerio
  • FilesCdn
  • IndiShare
  • Kbagi
  • Turbobit
  • UpToBox
  • Uppit
, Part2
  • BdUpload
  • DownAce
  • Fichier
  • FileCloud
  • Filerio
  • FilesCdn
  • IndiShare
  • Kbagi
  • Turbobit
  • UpToBox
  • Uppit
, Part3
  • BdUpload
  • DownAce
  • Fichier
  • FileCloud
  • Filerio
  • FilesCdn
  • IndiShare
  • Kbagi
  • Turbobit
  • UpToBox
  • Uppit

OpenLoad: Part1, Part2
Sendspace: Part1, Part2, Part3, Part4, Part5
SolidFiles: Part1, Part2, Part3
ZippyShare: Part1, Part2, Part3
HashesCRC32: AA5056D9, MD5: 15FEA340609422B89D2D195E5D701367, SHA1: D42D0555E1360312DC8FB809A3247BCD9D1646E8, SHA256: 0E1DC77D9DAFD5E3391AE03B3E4B1AAC10358BAF08ED8E98EC1DF63758CA58A0, ED2K: DE511CB1F83EAC34C9AB5F04543E3887
Screenshots
screenshotscreenshotscreenshotscreenshotscreenshot
SubtitlesAll Attachments | No Honorifics [eng, ASS]
Additional Info
General
Unique ID                                : 273496267998089198982685185680482674354 (0xCDC17718C2BA7191376DD3BB74B2A6B2)
Complete name                            : [GJM] One Punch Man S2 - 10 [AA5056D9].mkv
Format                                   : Matroska
Format version                           : Version 4
File size                                : 1.23 GiB
Duration                                 : 23 min 50 s
Overall bit rate                         : 7 369 kb/s
Encoded date                             : UTC 2019-07-04 03:12:39
Writing application                      : mkvmerge v35.0.0 ('All The Love In The World') 32-bit
Writing library                          : libebml v1.3.9 + libmatroska v1.5.2
Attachments                              : IWAMINPROEN-BD.OTF / JANEROE-BOLD.TTF / MASTERBREAKER.TTF / PEUNABRUSH-REGULAR.OTF / SPLATCH.TTF / VAKANSY.TTF / WORKSANS-BLACK.TTF / WORKSANS-BOLD.TTF / WORKSANS-MEDIUM.TTF / XANGDASHINY.TTF / ALBATROSS.TTF / AWESOMESAUCEDEMO-REGULAR.OTF / CHOMSKY.OTF / FRANCHISE-BOLD.TTF / GANDHISANS-BOLD.OTF / GANDHISANS-BOLDITALIC.OTF

Video
ID                                       : 1
Format                                   : AVC
Format/Info                              : Advanced Video Codec
Format profile                           : High 10@L5.1
Format settings                          : CABAC / 16 Ref Frames
Format settings, CABAC                   : Yes
Format settings, ReFrames                : 16 frames
Codec ID                                 : V_MPEG4/ISO/AVC
Duration                                 : 23 min 50 s
Bit rate                                 : 7 072 kb/s
Width                                    : 1 920 pixels
Height                                   : 1 080 pixels
Display aspect ratio                     : 16:9
Frame rate mode                          : Constant
Frame rate                               : 23.976 (24000/1001) FPS
Color space                              : YUV
Chroma subsampling                       : 4:2:0
Bit depth                                : 10 bits
Scan type                                : Progressive
Bits/(Pixel*Frame)                       : 0.142
Stream size                              : 1.18 GiB (96%)
Writing library                          : x264 core 155 r2893 b00bcaf
Encoding settings                        : cabac=1 / ref=16 / deblock=1:-2:-2 / analyse=0x3:0x113 / me=umh / subme=10 / psy=1 / psy_rd=0.80:0.00 / mixed_ref=1 / me_range=32 / chroma_me=1 / trellis=2 / 8x8dct=1 / cqm=0 / deadzone=21,11 / fast_pskip=0 / chroma_qp_offset=-2 / threads=24 / lookahead_threads=6 / sliced_threads=0 / nr=0 / decimate=0 / interlaced=0 / bluray_compat=0 / constrained_intra=0 / bframes=16 / b_pyramid=2 / b_adapt=2 / b_bias=0 / direct=3 / weightb=1 / open_gop=0 / weightp=2 / keyint=240 / keyint_min=23 / scenecut=40 / intra_refresh=0 / rc_lookahead=48 / rc=crf / mbtree=1 / crf=16.0 / qcomp=0.70 / qpmin=0 / qpmax=81 / qpstep=4 / ip_ratio=1.40 / aq=3:0.90
Language                                 : Japanese
Default                                  : Yes
Forced                                   : No
Color range                              : Limited
Matrix coefficients                      : BT.709

Audio
ID                                       : 2
Format                                   : AAC LC
Format/Info                              : Advanced Audio Codec Low Complexity
Codec ID                                 : A_AAC-2
Duration                                 : 23 min 50 s
Bit rate                                 : 256 kb/s
Channel(s)                               : 2 channels
Channel layout                           : L R
Sampling rate                            : 48.0 kHz
Frame rate                               : 46.875 FPS (1024 SPF)
Compression mode                         : Lossy
Stream size                              : 43.6 MiB (3%)
Language                                 : Japanese
Default                                  : Yes
Forced                                   : No

Text
ID                                       : 3
Format                                   : ASS
Codec ID                                 : S_TEXT/ASS
Codec ID/Info                            : Advanced Sub Station Alpha
Duration                                 : 23 min 48 s
Bit rate                                 : 1 089 b/s
Count of elements                        : 1604
Compression mode                         : Lossless
Stream size                              : 190 KiB (0%)
Title                                    : No Honorifics
Language                                 : English
Default                                  : Yes
Forced                                   : No

Menu
00:00:00.000                             : en:Prologue
00:01:36.513                             : en:OP
00:03:05.977                             : en:Main Episode
00:22:15.042                             : en:ED
00:23:45.007                             : en:Preview
beta
Anime DDL+NZB mirror
Current Time: 09/04/2020 11:40



About/FAQs