[GJM] Koitabi ~True Tours Nanto~ - 01 [B163E79E].mkv


File Size32.06 MB (33,615,674 bytes)
DownloadClickNUpload | Jheberg | MultiUp
  • BdUpload
  • DownAce
  • Fichier
  • FileCloud
  • Filerio
  • FilesCdn
  • IndiShare
  • Kbagi
  • Turbobit
  • UpToBox
  • Uppit
| Sendspace | SolidFiles | ZippyShare
HashesCRC32: B163E79E, MD5: 28D869D66595AFA5555D3C19D1BC939E, SHA1: 92506BBFA1AC430907CC598278A1CF2AE82FDE91, SHA256: B73BCD51F1766325499BEFF433A6592467D4B9C9B98D3C5870B42ECB8E42753E, ED2K: BC4E1041EAEA5293E1887F82E4A9209D
Screenshots
screenshotscreenshotscreenshotscreenshotscreenshot
SubtitlesAll Attachments | No Honorifics [eng, ASS]
Additional Info
General
Unique ID                                : 305693927110929585669146228755281306879 (0xE5FA8240FB0F540B271D4ACE137164FF)
Complete name                            : [GJM] Koitabi ~True Tours Nanto~ - 01 [B163E79E].mkv
Format                                   : Matroska
Format version                           : Version 4
File size                                : 32.1 MiB
Duration                                 : 7 min 7 s
Overall bit rate                         : 629 kb/s
Encoded date                             : UTC 2020-02-03 03:35:08
Writing application                      : mkvmerge v43.0.0 ('The Quartermaster') 32-bit
Writing library                          : libebml v1.3.10 + libmatroska v1.5.2
Attachments                              : AUSTIEBOSTHOOKEDONAFEELING.TTF / BRUSH445BT-REGULAR.TTF / CHARLOTTE.TTF / GANDHISANS-BOLD.OTF / GANDHISANS-BOLDITALIC.OTF / AMBLE-BOLD.TTF / ARIALROUNDEDMTBOLD.TTF

Video
ID                                       : 1
Format                                   : AVC
Format/Info                              : Advanced Video Codec
Format profile                           : Main@L3.1
Format settings                          : CABAC / 4 Ref Frames
Format settings, CABAC                   : Yes
Format settings, ReFrames                : 4 frames
Codec ID                                 : V_MPEG4/ISO/AVC
Duration                                 : 7 min 7 s
Bit rate                                 : 512 kb/s
Width                                    : 1 280 pixels
Height                                   : 720 pixels
Display aspect ratio                     : 16:9
Frame rate mode                          : Constant
Frame rate                               : 23.976 (23976/1000) FPS
Color space                              : YUV
Chroma subsampling                       : 4:2:0
Bit depth                                : 8 bits
Scan type                                : Progressive
Bits/(Pixel*Frame)                       : 0.023
Stream size                              : 26.3 MiB (82%)
Writing library                          : x264 core 122 r2184 5c85e0a
Encoding settings                        : cabac=1 / ref=3 / deblock=1:0:0 / analyse=0x1:0x111 / me=hex / subme=7 / psy=1 / psy_rd=1.00:0.00 / mixed_ref=1 / me_range=16 / chroma_me=1 / trellis=1 / 8x8dct=0 / cqm=0 / deadzone=21,11 / fast_pskip=1 / chroma_qp_offset=-2 / threads=6 / sliced_threads=0 / nr=0 / decimate=1 / interlaced=0 / bluray_compat=0 / constrained_intra=0 / bframes=3 / b_pyramid=2 / b_adapt=1 / b_bias=0 / direct=1 / weightb=1 / open_gop=0 / weightp=2 / keyint=250 / keyint_min=23 / scenecut=40 / intra_refresh=0 / rc_lookahead=40 / rc=abr / mbtree=1 / bitrate=512 / ratetol=1.0 / qcomp=0.50 / qpmin=0 / qpmax=69 / qpstep=4 / ip_ratio=1.40 / aq=1:1.00
Language                                 : Japanese
Default                                  : Yes
Forced                                   : No

Audio
ID                                       : 2
Format                                   : AAC LC
Format/Info                              : Advanced Audio Codec Low Complexity
Codec ID                                 : A_AAC-2
Duration                                 : 7 min 7 s
Bit rate                                 : 98.6 kb/s
Channel(s)                               : 2 channels
Channel layout                           : L R
Sampling rate                            : 44.1 kHz
Frame rate                               : 43.066 FPS (1024 SPF)
Compression mode                         : Lossy
Stream size                              : 5.02 MiB (16%)
Language                                 : Japanese
Default                                  : Yes
Forced                                   : No

Text
ID                                       : 3
Format                                   : ASS
Codec ID                                 : S_TEXT/ASS
Codec ID/Info                            : Advanced Sub Station Alpha
Duration                                 : 7 min 3 s
Bit rate                                 : 302 b/s
Count of elements                        : 188
Compression mode                         : Lossless
Stream size                              : 15.6 KiB (0%)
Title                                    : No Honorifics
Language                                 : English
Default                                  : Yes
Forced                                   : No

Menu
00:00:00.033                             : en:Intro
00:00:03.980                             : en:Main Episode
00:05:37.310                             : en:ED

Other Files in this Torrent
[GJM] Koitabi ~True Tours Nanto~ - 01 [B163E79E].mkv
beta
Anime DDL+NZB mirror
Current Time: 03/08/2021 17:06



About/FAQs