File Size976.9 MB (1,024,337,443 bytes)
DownloadClickNUpload | Jheberg | OpenLoad
MultiUp: Part1
  • BdUpload
  • DownAce
  • Fichier
  • FileCloud
  • Filerio
  • FilesCdn
  • IndiShare
  • Kbagi
  • Turbobit
  • UpToBox
  • Uppit
, Part2
  • BdUpload
  • DownAce
  • Fichier
  • FileCloud
  • Filerio
  • FilesCdn
  • IndiShare
  • Kbagi
  • Turbobit
  • UpToBox
  • Uppit

Sendspace: Part1, Part2, Part3, Part4
SolidFiles: Part1, Part2
ZippyShare: Part1, Part2
HashesCRC32: EC796C90, MD5: DFC8D621647AD375CF01CE11DC1CA99C, SHA1: 5D7BFB1CD7ECFE4FC0A9676BFDD4C83F6A7E117C, SHA256: 001361DDBC4698E510DB9FE61E51ACE0B405C7430E974CEF6E074524B893A2F7, ED2K: FA2F183235A4D927A9D1F2D06D3B076C
Screenshots
screenshotscreenshotscreenshotscreenshotscreenshot
SubtitlesAll Attachments | No Honorifics [eng, ASS]
Additional Info
General
Unique ID                                : 333070839936380928276371629700169810220 (0xFA931C44B80F026E3744C8E4C26B412C)
Complete name                            : [GJM] To Aru Kagaku no Accelerator - 12 [EC796C90].mkv
Format                                   : Matroska
Format version                           : Version 4
File size                                : 977 MiB
Duration                                 : 23 min 40 s
Overall bit rate                         : 5 771 kb/s
Encoded date                             : UTC 2019-09-29 22:37:15
Writing application                      : mkvmerge v36.0.0 ('Is That Jazz?') 32-bit
Writing library                          : libebml v1.3.9 + libmatroska v1.5.2
Attachments                              : GANDHISANS-BOLD.OTF / GANDHISANS-BOLDITALIC.OTF / QUADRAAT-BOLD.OTF / ROCKBAIT.TTF / ABELBECKER-BOLD.TTF / AEROMATICSDISPLAYLIGHTREGULAR.TTF / ALEGREYA-REGULAR.OTF / DISPOSE101.TTF / FOTMODEMINSTDBOLD.TTF

Video
ID                                       : 1
Format                                   : AVC
Format/Info                              : Advanced Video Codec
Format profile                           : High 10@L5.1
Format settings                          : CABAC / 16 Ref Frames
Format settings, CABAC                   : Yes
Format settings, ReFrames                : 16 frames
Codec ID                                 : V_MPEG4/ISO/AVC
Duration                                 : 23 min 40 s
Bit rate                                 : 5 444 kb/s
Width                                    : 1 920 pixels
Height                                   : 1 080 pixels
Display aspect ratio                     : 16:9
Frame rate mode                          : Constant
Frame rate                               : 23.976 (24000/1001) FPS
Color space                              : YUV
Chroma subsampling                       : 4:2:0
Bit depth                                : 10 bits
Scan type                                : Progressive
Bits/(Pixel*Frame)                       : 0.110
Stream size                              : 922 MiB (94%)
Writing library                          : x264 core 157 r2935 545de2f
Encoding settings                        : cabac=1 / ref=16 / deblock=1:0:-1 / analyse=0x3:0x133 / me=umh / subme=10 / psy=1 / psy_rd=0.80:0.15 / mixed_ref=1 / me_range=32 / chroma_me=1 / trellis=2 / 8x8dct=1 / cqm=0 / deadzone=21,11 / fast_pskip=0 / chroma_qp_offset=-3 / threads=24 / lookahead_threads=6 / sliced_threads=0 / nr=0 / decimate=0 / interlaced=0 / bluray_compat=0 / constrained_intra=0 / bframes=16 / b_pyramid=2 / b_adapt=2 / b_bias=0 / direct=3 / weightb=1 / open_gop=0 / weightp=2 / keyint=240 / keyint_min=24 / scenecut=40 / intra_refresh=0 / rc_lookahead=80 / rc=crf / mbtree=1 / crf=15.0 / qcomp=0.70 / qpmin=0 / qpmax=81 / qpstep=4 / ip_ratio=1.40 / aq=3:1.10
Language                                 : Japanese
Default                                  : Yes
Forced                                   : No
Color range                              : Limited
Matrix coefficients                      : BT.709

Audio
ID                                       : 2
Format                                   : AAC LC
Format/Info                              : Advanced Audio Codec Low Complexity
Codec ID                                 : A_AAC-2
Duration                                 : 23 min 40 s
Bit rate                                 : 320 kb/s
Channel(s)                               : 2 channels
Channel layout                           : L R
Sampling rate                            : 48.0 kHz
Frame rate                               : 46.875 FPS (1024 SPF)
Compression mode                         : Lossy
Delay relative to video                  : 11 ms
Stream size                              : 54.2 MiB (6%)
Language                                 : Japanese
Default                                  : Yes
Forced                                   : No

Text
ID                                       : 3
Format                                   : ASS
Codec ID                                 : S_TEXT/ASS
Codec ID/Info                            : Advanced Sub Station Alpha
Duration                                 : 23 min 34 s
Bit rate                                 : 674 b/s
Count of elements                        : 768
Compression mode                         : Lossless
Stream size                              : 117 KiB (0%)
Title                                    : No Honorifics
Language                                 : English
Default                                  : Yes
Forced                                   : No

Menu
00:00:00.000                             : en:Prologue
00:01:04.982                             : en:OP
00:02:35.030                             : en:Part A
00:12:46.057                             : en:Part B
00:20:35.651                             : en:ED
00:22:04.782                             : en:Epilogue
beta
Anime DDL+NZB mirror
Current Time: 02/06/2020 01:22



About/FAQs