Getter Robo Arc - S01E04 (720p VRV Dual Audio WEB-DL -KS-).mkv


File Size751.7 MB (788,226,086 bytes)
DownloadClickNUpload | DownloadGG | DropAPK
MultiUp: Part1
  • BdUpload
  • DownAce
  • Fichier
  • FileCloud
  • Filerio
  • FilesCdn
  • IndiShare
  • Kbagi
  • Turbobit
  • UpToBox
  • Uppit
, Part2
  • BdUpload
  • DownAce
  • Fichier
  • FileCloud
  • Filerio
  • FilesCdn
  • IndiShare
  • Kbagi
  • Turbobit
  • UpToBox
  • Uppit

SolidFiles: Part1, Part2
ZippyShare: Part1, Part2
HashesCRC32: 4EBFD50F, MD5: C567FD98559BFC70FDB33ED409718AD0, SHA1: 30A39F156A4F77A62DF01625CB26B75AA708E6D8, SHA256: B9586A3BF53E92DC3F2D93F4F2A3C1594E9BF51A7033455371135919EB70BBD0, ED2K: 75AC332B72740715ABA80985495F3AC5
Screenshots
screenshotscreenshotscreenshotscreenshotscreenshot
SubtitlesAll Attachments | Signs & Songs (HIDIVE, SSA) [eng, ASS], English (HIDIVE) [eng, ASS]
Additional Info
General
Unique ID                                : 75444574776798925427688196470269486872 (0x38C218B8D6CB3C7E986D10475C032718)
Complete name                            : Getter Robo Arc - S01E04 (720p VRV Dual Audio WEB-DL -KS-).mkv
Format                                   : Matroska
Format version                           : Version 4
File size                                : 752 MiB
Duration                                 : 24 min 26 s
Overall bit rate                         : 4 300 kb/s
Encoded date                             : UTC 2021-11-23 14:24:47
Writing application                      : mkvmerge v63.0.0 ('Everything') 64-bit
Writing library                          : libebml v1.4.2 + libmatroska v1.6.4
Attachments                              : arialbd.ttf / swz721b.ttf / timesbd.ttf

Video
ID                                       : 1
Format                                   : AVC
Format/Info                              : Advanced Video Codec
Format profile                           : High@L3.1
Format settings                          : CABAC / 4 Ref Frames
Format settings, CABAC                   : Yes
Format settings, ReFrames                : 4 frames
Format settings, GOP                     : N=1
Codec ID                                 : V_MPEG4/ISO/AVC
Duration                                 : 24 min 26 s
Bit rate                                 : 4 000 kb/s
Width                                    : 1 280 pixels
Height                                   : 720 pixels
Display aspect ratio                     : 16:9
Frame rate mode                          : Constant
Frame rate                               : 23.976 (24000/1001) FPS
Color space                              : YUV
Chroma subsampling                       : 4:2:0
Bit depth                                : 8 bits
Scan type                                : Progressive
Bits/(Pixel*Frame)                       : 0.181
Stream size                              : 693 MiB (92%)
Title                                    : HIDIVE (VRV, Broadcast)
Writing library                          : x264 core 142
Encoding settings                        : cabac=1 / ref=4 / deblock=1:1:1 / analyse=0x3:0x113 / me=umh / subme=8 / psy=1 / psy_rd=0.40:0.00 / mixed_ref=1 / me_range=16 / chroma_me=1 / trellis=1 / 8x8dct=1 / cqm=0 / deadzone=21,11 / fast_pskip=1 / chroma_qp_offset=-2 / threads=10 / lookahead_threads=1 / sliced_threads=0 / nr=0 / decimate=1 / interlaced=0 / bluray_compat=0 / constrained_intra=0 / bframes=0 / weightp=2 / keyint=96 / keyint_min=48 / scenecut=40 / intra_refresh=0 / rc_lookahead=48 / rc=2pass / mbtree=1 / bitrate=4000 / ratetol=1.0 / qcomp=0.60 / qpmin=0 / qpmax=69 / qpstep=4 / cplxblur=20.0 / qblur=0.5 / vbv_maxrate=6000 / vbv_bufsize=9000 / nal_hrd=none / filler=0 / ip_ratio=1.40 / aq=1:0.60
Language                                 : English
Default                                  : Yes
Forced                                   : No

Audio #1
ID                                       : 2
Format                                   : AAC LC
Format/Info                              : Advanced Audio Codec Low Complexity
Codec ID                                 : A_AAC-2
Duration                                 : 24 min 26 s
Bit rate                                 : 159 kb/s
Channel(s)                               : 2 channels
Channel layout                           : L R
Sampling rate                            : 48.0 kHz
Frame rate                               : 46.875 FPS (1024 SPF)
Compression mode                         : Lossy
Delay relative to video                  : 11 ms
Stream size                              : 27.9 MiB (4%)
Title                                    : English (HIDIVE, AAC2.0)
Language                                 : English
Default                                  : Yes
Forced                                   : No

Audio #2
ID                                       : 3
Format                                   : AAC LC
Format/Info                              : Advanced Audio Codec Low Complexity
Codec ID                                 : A_AAC-2
Duration                                 : 24 min 26 s
Bit rate                                 : 159 kb/s
Channel(s)                               : 2 channels
Channel layout                           : L R
Sampling rate                            : 48.0 kHz
Frame rate                               : 46.875 FPS (1024 SPF)
Compression mode                         : Lossy
Stream size                              : 27.9 MiB (4%)
Title                                    : Japanese (HIDIVE, AAC2.0)
Language                                 : Japanese
Default                                  : No
Forced                                   : No

Text #1
ID                                       : 4
Format                                   : ASS
Codec ID                                 : S_TEXT/ASS
Codec ID/Info                            : Advanced Sub Station Alpha
Duration                                 : 22 min 5 s
Bit rate                                 : 10 b/s
Count of elements                        : 27
Compression mode                         : Lossless
Stream size                              : 1.67 KiB (0%)
Title                                    : Signs & Songs (HIDIVE, SSA)
Language                                 : English
Default                                  : Yes
Forced                                   : Yes

Text #2
ID                                       : 5
Format                                   : ASS
Codec ID                                 : S_TEXT/ASS
Codec ID/Info                            : Advanced Sub Station Alpha
Duration                                 : 23 min 24 s
Bit rate                                 : 94 b/s
Count of elements                        : 280
Compression mode                         : Lossless
Stream size                              : 16.3 KiB (0%)
Title                                    : English (HIDIVE)
Language                                 : English
Default                                  : No
Forced                                   : No

Other Files in this Torrent
Getter Robo Arc - S01E04 (720p VRV Dual Audio WEB-DL -KS-).mkv
beta
Anime DDL+NZB mirror
Current Time: 01/07/2022 13:28



About/FAQs

Discord