[FreakCrSuBuS] Netojuu no Susume - 10 [720].mkv


File Size276.1 MB (289,505,116 bytes)
DownloadClickNUpload | Go4Up | Jheberg | MultiUp | OpenLoad | Sendspace | SolidFiles | Upfile.mobi
HashesCRC32: E70091C3, MD5: E3F4E752030C3D4AB0575ADFCD48EE91, SHA1: 750C898DF73FC4059DBC3982D97451F3E20168F7, SHA256: 411D68A5A217E53C69CFF243A5C1511F2AB8E91122677E722DB77C060B0FC0D2, ED2K: 4F95F673392C46700B96A116396D66A5
Screenshots
screenshotscreenshotscreenshotscreenshotscreenshot
SubtitlesAll Attachments | eng [ASS], arabic [und, ASS]
Additional Info
General
Unique ID                                : 193148362062394017054763848094085628023 (0x914F057BD0E10E06A84F3E64F80D4077)
Complete name                            : [FreakCrSuBuS] Netojuu no Susume - 10 [720].mkv
Format                                   : Matroska
Format version                           : Version 4 / Version 2
File size                                : 276 MiB
Duration                                 : 23 min 25 s
Overall bit rate                         : 1 648 kb/s
Encoded date                             : UTC 2017-12-08 16:06:21
Writing application                      : mkvmerge v17.0.0 ('Be Ur Friend') 32-bit
Writing library                          : libebml v1.3.5 + libmatroska v1.4.8

Video
ID                                       : 3
Format                                   : AVC
Format/Info                              : Advanced Video Codec
Format profile                           : High@L4
Format settings, CABAC                   : Yes
Format settings, ReFrames                : 6 frames
Codec ID                                 : V_MPEG4/ISO/AVC
Duration                                 : 23 min 25 s
Bit rate                                 : 1 518 kb/s
Width                                    : 1 280 pixels
Height                                   : 720 pixels
Display aspect ratio                     : 16:9
Frame rate mode                          : Constant
Frame rate                               : 23.976 (24000/1001) FPS
Color space                              : YUV
Chroma subsampling                       : 4:2:0
Bit depth                                : 8 bits
Scan type                                : Progressive
Bits/(Pixel*Frame)                       : 0.069
Stream size                              : 254 MiB (92%)
Writing library                          : x264 core 142
Encoding settings                        : cabac=1 / ref=6 / deblock=1:1:1 / analyse=0x3:0x113 / me=umh / subme=8 / psy=1 / psy_rd=0.40:0.00 / mixed_ref=1 / me_range=16 / chroma_me=1 / trellis=1 / 8x8dct=1 / cqm=0 / deadzone=21,11 / fast_pskip=1 / chroma_qp_offset=-2 / threads=10 / lookahead_threads=1 / sliced_threads=0 / nr=0 / decimate=1 / interlaced=0 / bluray_compat=0 / constrained_intra=0 / bframes=3 / b_pyramid=2 / b_adapt=2 / b_bias=0 / direct=3 / weightb=1 / open_gop=0 / weightp=2 / keyint=48 / keyint_min=24 / scenecut=40 / intra_refresh=0 / rc_lookahead=48 / rc=crf / mbtree=1 / crf=15.0 / qcomp=0.60 / qpmin=0 / qpmax=69 / qpstep=4 / vbv_maxrate=4000 / vbv_bufsize=6000 / crf_max=0.0 / nal_hrd=none / filler=0 / ip_ratio=1.40 / aq=1:0.60
Default                                  : Yes
Forced                                   : No

Audio
ID                                       : 4
Format                                   : AAC
Format/Info                              : Advanced Audio Codec
Format profile                           : LC
Codec ID                                 : A_AAC
Duration                                 : 23 min 25 s
Bit rate                                 : 128 kb/s
Channel(s)                               : 2 channels
Channel positions                        : Front: L R
Sampling rate                            : 44.1 kHz
Frame rate                               : 43.066 FPS (1024 spf)
Compression mode                         : Lossy
Delay relative to video                  : -83 ms
Stream size                              : 21.4 MiB (8%)
Default                                  : Yes
Forced                                   : No

Text #1
ID                                       : 1
Format                                   : ASS
Codec ID                                 : S_TEXT/ASS
Codec ID/Info                            : Advanced Sub Station Alpha
Duration                                 : 19 min 36 s
Bit rate                                 : 122 b/s
Count of elements                        : 295
Compression mode                         : Lossless
Stream size                              : 17.6 KiB (0%)
Language                                 : English
Default                                  : Yes
Forced                                   : No

Text #2
ID                                       : 2
Format                                   : ASS
Codec ID                                 : S_TEXT/ASS
Codec ID/Info                            : Advanced Sub Station Alpha
Duration                                 : 19 min 36 s
Bit rate                                 : 133 b/s
Count of elements                        : 288
Compression mode                         : Lossless
Stream size                              : 19.2 KiB (0%)
Title                                    : arabic
Default                                  : No
Forced                                   : No

Other Files in this Torrent
[FreakCrSuBuS] Netojuu no Susume - 10 [720].mkv
beta
Anime DDL+NZB mirror
Current Time: 20/05/2024 22:14



About/FAQs

Discord