File Size1.184 GB (1,271,407,115 bytes)
DownloadClickNUpload: Part1, Part2
Jheberg: Part1, Part2
MultiUp: Part1, Part2
OpenLoad: Part1, Part2
Sendspace: Part1, Part2, Part3, Part4, Part5
SolidFiles: Part1, Part2, Part3
ZippyShare: Part1, Part2, Part3
HashesCRC32: A59A3E4C, MD5: 79B9F9D50E418101534B87C9A636CC46, SHA1: 5A064B3B53DA0C4102CB88506B97FBC764FE3CDC, SHA256: 252F30FEEBEE5E0DA719FB7E5705EF92C872E3C587B5B56E1A7223F1DE93B022, ED2K: 9B370A959BC6C763F48C02A1815D2720
Screenshots
screenshotscreenshotscreenshotscreenshotscreenshot
SubtitlesAll Attachments | English(US) [und, ASS], Deutsch [und, ASS], Francais(France) [und, ASS], Portugues(Brasil) [und, ASS]
Additional Info
General
Unique ID                                : 252240315373963560663783190372701738381 (0xBDC3B7B84E640FE58052269B8160958D)
Complete name                            : [FreakCrSuBuS] Mob Psycho 100 REIGEN [720][Multisub].mkv
Format                                   : Matroska
Format version                           : Version 4 / Version 2
File size                                : 1.18 GiB
Duration                                 : 1 h 0 min
Overall bit rate                         : 2 802 kb/s
Encoded date                             : UTC 2018-03-18 18:25:35
Writing application                      : mkvmerge v17.0.0 ('Be Ur Friend') 32-bit
Writing library                          : libebml v1.3.5 + libmatroska v1.4.8

Video
ID                                       : 1
Format                                   : AVC
Format/Info                              : Advanced Video Codec
Format profile                           : High@L4
Format settings, CABAC                   : Yes
Format settings, ReFrames                : 6 frames
Codec ID                                 : V_MPEG4/ISO/AVC
Duration                                 : 1 h 0 min
Bit rate                                 : 2 672 kb/s
Width                                    : 1 280 pixels
Height                                   : 720 pixels
Display aspect ratio                     : 16:9
Frame rate mode                          : Variable
Frame rate                               : 23.851 FPS
Color space                              : YUV
Chroma subsampling                       : 4:2:0
Bit depth                                : 8 bits
Scan type                                : Progressive
Bits/(Pixel*Frame)                       : 0.122
Stream size                              : 1.13 GiB (95%)
Writing library                          : x264 core 142
Encoding settings                        : cabac=1 / ref=6 / deblock=1:1:1 / analyse=0x3:0x113 / me=umh / subme=8 / psy=1 / psy_rd=0.40:0.00 / mixed_ref=1 / me_range=16 / chroma_me=1 / trellis=1 / 8x8dct=1 / cqm=0 / deadzone=21,11 / fast_pskip=1 / chroma_qp_offset=-2 / threads=10 / lookahead_threads=1 / sliced_threads=0 / nr=0 / decimate=1 / interlaced=0 / bluray_compat=0 / constrained_intra=0 / bframes=3 / b_pyramid=2 / b_adapt=2 / b_bias=0 / direct=3 / weightb=1 / open_gop=0 / weightp=2 / keyint=48 / keyint_min=24 / scenecut=40 / intra_refresh=0 / rc_lookahead=48 / rc=crf / mbtree=1 / crf=15.0 / qcomp=0.60 / qpmin=0 / qpmax=69 / qpstep=4 / vbv_maxrate=4000 / vbv_bufsize=6000 / crf_max=0.0 / nal_hrd=none / filler=0 / ip_ratio=1.40 / aq=1:0.60
Default                                  : Yes
Forced                                   : No

Audio
ID                                       : 2
Format                                   : AAC
Format/Info                              : Advanced Audio Codec
Format profile                           : LC
Codec ID                                 : A_AAC
Duration                                 : 1 h 0 min
Bit rate                                 : 127 kb/s
Channel(s)                               : 2 channels
Channel positions                        : Front: L R
Sampling rate                            : 44.1 kHz
Frame rate                               : 43.066 FPS (1024 spf)
Compression mode                         : Lossy
Delay relative to video                  : -83 ms
Stream size                              : 55.1 MiB (5%)
Default                                  : Yes
Forced                                   : No

Text #1
ID                                       : 3
Format                                   : ASS
Codec ID                                 : S_TEXT/ASS
Codec ID/Info                            : Advanced Sub Station Alpha
Duration                                 : 1 h 0 min
Bit rate                                 : 174 b/s
Count of elements                        : 1075
Compression mode                         : Lossless
Stream size                              : 77.0 KiB (0%)
Title                                    : English(US)
Default                                  : Yes
Forced                                   : No

Text #2
ID                                       : 4
Format                                   : ASS
Codec ID                                 : S_TEXT/ASS
Codec ID/Info                            : Advanced Sub Station Alpha
Duration                                 : 1 h 0 min
Bit rate                                 : 174 b/s
Count of elements                        : 1097
Compression mode                         : Lossless
Stream size                              : 76.9 KiB (0%)
Title                                    : Deutsch
Default                                  : No
Forced                                   : No

Text #3
ID                                       : 5
Format                                   : ASS
Codec ID                                 : S_TEXT/ASS
Codec ID/Info                            : Advanced Sub Station Alpha
Duration                                 : 1 h 0 min
Bit rate                                 : 135 b/s
Count of elements                        : 850
Compression mode                         : Lossless
Stream size                              : 59.7 KiB (0%)
Title                                    : Francais(France)
Default                                  : No
Forced                                   : No

Text #4
ID                                       : 6
Format                                   : ASS
Codec ID                                 : S_TEXT/ASS
Codec ID/Info                            : Advanced Sub Station Alpha
Duration                                 : 1 h 0 min
Bit rate                                 : 178 b/s
Count of elements                        : 1081
Compression mode                         : Lossless
Stream size                              : 79.0 KiB (0%)
Title                                    : Portugues(Brasil)
Default                                  : No
Forced                                   : No
beta
Anime DDL+NZB mirror
Current Time: 03/03/2021 02:57



About/FAQs