[Foxtrot] Vinland Saga - 10 [A5059E5A].mkv


File Size385.6 MB (404,366,713 bytes)
DownloadClickNUpload | Jheberg | MultiUp
  • BdUpload
  • DownAce
  • Fichier
  • FileCloud
  • Filerio
  • FilesCdn
  • IndiShare
  • Kbagi
  • Turbobit
  • UpToBox
  • Uppit
| OpenLoad | SolidFiles | ZippyShare
Sendspace: Part1, Part2
HashesCRC32: A5059E5A, MD5: 92C8C7416BAB074D4609BF69BD34B189, SHA1: EB62975F91CED72EB000A59228F13B5D442686A0, SHA256: 56520669D23DF119CC5A592AC4676BDF356C8AAB3CC3BAA8C5B91B4C47D3BE56, ED2K: 31817FE7DDACBA54FC32E43882A454D2
Screenshots
screenshotscreenshotscreenshotscreenshotscreenshot
SubtitlesAll Attachments | Amazon (Modified) [eng, ASS]
Additional Info
General
Unique ID                                : 236897460302912966668221423309030865933 (0xB238CA8FAA741AD48A7894DEA876BC0D)
Complete name                            : [Foxtrot] Vinland Saga - 10 [A5059E5A].mkv
Format                                   : Matroska
Format version                           : Version 4
File size                                : 386 MiB
Duration                                 : 24 min 25 s
Overall bit rate                         : 2 208 kb/s
Movie name                               : [Foxtrot] Vinland Saga - 10: Ragnarok
Encoded date                             : UTC 2019-09-18 15:22:17
Writing application                      : mkvmerge v9.4.0 ('Knurl') 64bit
Writing library                          : libebml v1.3.4 + libmatroska v1.4.5
Attachments                              : FOT-NewCinemaA_Std_D_Regular.otf / GenBasB.ttf / GenBasBI.ttf / IM_FELL_ENGLISH_PRO_ROMAN.OTF / RUZICKATYPEK.TTF / sylfaen.ttf

Video
ID                                       : 1
Format                                   : AVC
Format/Info                              : Advanced Video Codec
Format profile                           : High 10@L5
Format settings                          : CABAC / 9 Ref Frames
Format settings, CABAC                   : Yes
Format settings, ReFrames                : 9 frames
Codec ID                                 : V_MPEG4/ISO/AVC
Duration                                 : 24 min 25 s
Bit rate                                 : 1 950 kb/s
Width                                    : 1 280 pixels
Height                                   : 720 pixels
Display aspect ratio                     : 16:9
Frame rate mode                          : Constant
Frame rate                               : 23.976 (24000/1001) FPS
Color space                              : YUV
Chroma subsampling                       : 4:2:0
Bit depth                                : 10 bits
Scan type                                : Progressive
Bits/(Pixel*Frame)                       : 0.088
Stream size                              : 341 MiB (88%)
Writing library                          : x264 core 155 r2901M 7d0ff22 (DJATOM's mod)
Encoding settings                        : cabac=1 / ref=9 / deblock=1:-1:-1 / analyse=0x3:0x113 / me=umh / subme=11 / psy=1 / fade_compensate=0.00 / psy_rd=0.80:0.00 / mixed_ref=1 / me_range=32 / chroma_me=1 / trellis=2 / 8x8dct=1 / cqm=0 / deadzone=21,11 / fast_pskip=1 / chroma_qp_offset=-2 / threads=12 / lookahead_threads=1 / sliced_threads=0 / nr=0 / decimate=1 / interlaced=0 / bluray_compat=0 / constrained_intra=0 / bframes=4 / b_pyramid=2 / b_adapt=2 / b_bias=0 / direct=1 / weightb=1 / open_gop=0 / weightp=2 / keyint=240 / keyint_min=23 / scenecut=40 / intra_refresh=0 / rc_lookahead=40 / rc=crf / mbtree=1 / crf=16.0000 / qcomp=0.72 / qpmin=0 / qpmax=81 / qpstep=4 / ip_ratio=1.40 / aq=3:0.80
Default                                  : Yes
Forced                                   : No
Color range                              : Limited
Color primaries                          : BT.709
Transfer characteristics                 : BT.709
Matrix coefficients                      : BT.709

Audio
ID                                       : 2
Format                                   : E-AC-3
Format/Info                              : Enhanced AC-3
Commercial name                          : Dolby Digital Plus
Codec ID                                 : A_EAC3
Duration                                 : 24 min 24 s
Bit rate mode                            : Constant
Bit rate                                 : 224 kb/s
Channel(s)                               : 2 channels
Channel layout                           : L R
Sampling rate                            : 48.0 kHz
Frame rate                               : 31.250 FPS (1536 SPF)
Compression mode                         : Lossy
Stream size                              : 39.1 MiB (10%)
Language                                 : Japanese
Service kind                             : Complete Main
Default                                  : Yes
Forced                                   : No

Text
ID                                       : 3
Format                                   : ASS
Codec ID                                 : S_TEXT/ASS
Codec ID/Info                            : Advanced Sub Station Alpha
Duration                                 : 24 min 7 s
Bit rate                                 : 159 b/s
Count of elements                        : 413
Compression mode                         : Lossless
Stream size                              : 28.3 KiB (0%)
Title                                    : Amazon (Modified)
Language                                 : English
Default                                  : Yes
Forced                                   : No

Menu
00:00:00.000                             : :Intro
00:03:21.993                             : :Opening
00:04:52.042                             : :Part A
00:13:21.009                             : :Part B
00:22:55.040                             : :Ending
beta
Anime DDL+NZB mirror
Current Time: 13/11/2019 22:04



About/FAQs