[fools] Astro Note - 01 (1080p) [FB97763F].mkv


File Size543.0 MB (569,361,678 bytes)
DownloadClickNUpload | DailyUploads | DownloadGG | GoFile | KrakenFiles | MdiaLoad | Uppit
MultiUp: Part1
  • BdUpload
  • DownAce
  • Fichier
  • FileCloud
  • Filerio
  • FilesCdn
  • IndiShare
  • Kbagi
  • Turbobit
  • UpToBox
  • Uppit
, Part2
  • BdUpload
  • DownAce
  • Fichier
  • FileCloud
  • Filerio
  • FilesCdn
  • IndiShare
  • Kbagi
  • Turbobit
  • UpToBox
  • Uppit
HashesCRC32: FB97763F, MD5: 9C11DC4CC09F39D2FAF6B6D66C0FFDA5, SHA1: 212218343909893112589CF6A60484DB57B8A30C, SHA256: F9B5ACC9E2F73A84EC54C7DE946C7F2E6FCBE4D7B48B920E54E133A5F89032FC, ED2K: 8C6B94892D6237CF29B0525B78D61D2F
Screenshots
screenshotscreenshotscreenshotscreenshotscreenshot
Additional Info
General
Complete name                            : [fools] Astro Note - 01 (1080p) [FB97763F].mkv
Format                                   : Matroska
Format version                           : Version 4
File size                                : 543 MiB
Duration                                 : 24 min 0 s
Overall bit rate mode                    : Variable
Overall bit rate                         : 3 163 kb/s
Frame rate                               : 23.976 FPS
Writing application                      : mkvmerge v83.0 ('Circle Of Friends') 64-bit
Writing library                          : libebml v1.4.5 + libmatroska v1.7.1

Video
ID                                       : 1
Format                                   : AVC
Format/Info                              : Advanced Video Codec
Format profile                           : Main@L4
Format settings                          : CABAC / 4 Ref Frames
Format settings, CABAC                   : Yes
Format settings, Reference frames        : 4 frames
Codec ID                                 : V_MPEG4/ISO/AVC
Duration                                 : 24 min 0 s
Bit rate mode                            : Variable
Bit rate                                 : 3 033 kb/s
Maximum bit rate                         : 4 000 kb/s
Width                                    : 1 920 pixels
Height                                   : 1 080 pixels
Display aspect ratio                     : 16:9
Frame rate mode                          : Constant
Frame rate                               : 23.976 (24000/1001) FPS
Color space                              : YUV
Chroma subsampling                       : 4:2:0
Bit depth                                : 8 bits
Scan type                                : Progressive
Bits/(Pixel*Frame)                       : 0.061
Stream size                              : 521 MiB (96%)
Language                                 : English
Default                                  : No
Forced                                   : Yes

Audio
ID                                       : 2
Format                                   : AAC LC
Format/Info                              : Advanced Audio Codec Low Complexity
Codec ID                                 : A_AAC-2
Duration                                 : 24 min 0 s
Bit rate                                 : 128 kb/s
Channel(s)                               : 2 channels
Channel layout                           : L R
Sampling rate                            : 44.1 kHz
Frame rate                               : 43.066 FPS (1024 SPF)
Compression mode                         : Lossy
Stream size                              : 22.0 MiB (4%)
Title                                    : [fools] Japanese
Language                                 : Japanese
Default                                  : Yes
Forced                                   : No
beta
Anime DDL+NZB mirror
Current Time: 18/05/2024 20:06



About/FAQs

Discord