[FlySubs]Shoujo Conte All Starlight - 8.mkv


File Size26.82 MB (28,124,640 bytes)
DownloadClickNUpload | Jheberg | MultiUp
  • BdUpload
  • DownAce
  • Fichier
  • FileCloud
  • Filerio
  • FilesCdn
  • IndiShare
  • Kbagi
  • Turbobit
  • UpToBox
  • Uppit
| OpenLoad | Sendspace | SolidFiles | ZippyShare
HashesCRC32: BC865F97, MD5: DA2B01BBC416B618BEB84B52E8747508, SHA1: C656461A2D8772A904C91555CF70FC4802803386, SHA256: E6EC4D32FA25F958960E754048AF116753AFA887B1431CAD65951958FBF36C70, ED2K: AC52924647790261E9176C03E9D79410
Screenshots
screenshotscreenshotscreenshot
SubtitlesAll Attachments | und [ASS]
Additional Info
General
Unique ID                                : 143066890918358945149963906984299337821 (0x6BA1AE513B715825631E2BE46382185D)
Complete name                            : [FlySubs]Shoujo Conte All Starlight - 8.mkv
Format                                   : Matroska
Format version                           : Version 4
File size                                : 26.8 MiB
Duration                                 : 3 min 4 s
Overall bit rate                         : 1 221 kb/s
Encoded date                             : UTC 2019-08-25 09:09:59
Writing application                      : mkvmerge v25.0.0 ('Prog Noir') 64-bit
Writing library                          : libebml v1.3.6 + libmatroska v1.4.9

Video
ID                                       : 1
Format                                   : AVC
Format/Info                              : Advanced Video Codec
Format profile                           : Main@L3.1
Format settings                          : CABAC / 4 Ref Frames
Format settings, CABAC                   : Yes
Format settings, ReFrames                : 4 frames
Codec ID                                 : V_MPEG4/ISO/AVC
Duration                                 : 3 min 2 s
Bit rate                                 : 1 101 kb/s
Width                                    : 960 pixels
Height                                   : 540 pixels
Display aspect ratio                     : 16:9
Frame rate mode                          : Constant
Frame rate                               : 23.976 (24000/1001) FPS
Standard                                 : NTSC
Color space                              : YUV
Chroma subsampling                       : 4:2:0
Bit depth                                : 8 bits
Scan type                                : Progressive
Bits/(Pixel*Frame)                       : 0.089
Stream size                              : 24.0 MiB (90%)
Language                                 : English
Default                                  : Yes
Forced                                   : No
Color range                              : Limited
Color primaries                          : BT.601 NTSC
Transfer characteristics                 : BT.601
Matrix coefficients                      : BT.601

Audio
ID                                       : 2
Format                                   : AAC LC
Format/Info                              : Advanced Audio Codec Low Complexity
Codec ID                                 : A_AAC-2
Duration                                 : 3 min 3 s
Bit rate                                 : 125 kb/s
Channel(s)                               : 2 channels
Channel layout                           : L R
Sampling rate                            : 48.0 kHz
Frame rate                               : 46.875 FPS (1024 SPF)
Compression mode                         : Lossy
Stream size                              : 2.74 MiB (10%)
Language                                 : English
Default                                  : Yes
Forced                                   : No

Text
ID                                       : 3
Format                                   : ASS
Codec ID                                 : S_TEXT/ASS
Codec ID/Info                            : Advanced Sub Station Alpha
Duration                                 : 3 min 4 s
Bit rate                                 : 164 b/s
Count of elements                        : 73
Compression mode                         : Lossless
Stream size                              : 3.71 KiB (0%)
Default                                  : Yes
Forced                                   : No

Other Files in this Torrent
[FlySubs]Shoujo Conte All Starlight - 8.mkv
beta
Anime DDL+NZB mirror
Current Time: 09/04/2020 10:18



About/FAQs