File Size301.8 MB (316,477,946 bytes)
DownloadClickNUpload | Go4Up | Jheberg | MultiUp
  • ClickNupload
  • Fichier
  • Filerio
  • Free
  • Fufox
  • HugeFiles
  • Mightyupload
  • ToutBox
  • Turbobit
  • UpToBox
  • Uplea
  • UploadBaz
  • Uploadable
  • Uploaded
  • Uppit
  • Userscloud
| OpenLoad | SolidFiles
Sendspace: Part1, Part2
Encrypted DownloadDirect
Password:
HashesCRC32: 1262B6F7, MD5: BE1AE33F60D493AF32506676200C5380, SHA1: 4E178EE73A5A5A1A386511F9F6382E3232C2439B, SHA256: 5BFAB2EDD33BC545D87DD39152DB472A66B9A13EB3B2FDBA90890B2B2F080881, ED2K: E4F2A7616408BF526C438B83208095B7
Screenshots
screenshotscreenshotscreenshotscreenshotscreenshot
SubtitlesAll Attachments | English (finFAGs, AnimeNetwork) [eng, ASS]
Additional Info
General
Unique ID                                : 318165909990093928218505554335947078469 (0xEF5C867C3E795CE76FA60334ECF0BB45)
Complete name                            : [finFAGs]_Frame_Arms_Girl_07_(1280x720_TV_AAC)_[1262B6F7].mkv
Format                                   : Matroska
Format version                           : Version 4 / Version 2
File size                                : 302 MiB
Duration                                 : 23 min 30 s
Overall bit rate                         : 1 796 kb/s
Movie name                               : [finFAGS] Frame Arms Girl 07 ('Vs. Hresvelgr' & 'First Tale of the F.A. Girls')
Encoded date                             : UTC 2017-05-17 20:18:15
Writing application                      : mkvmerge v11.0.0 ('Alive') 64bit
Writing library                          : libebml v1.3.4 + libmatroska v1.4.7
Attachments                              : calibri.ttf / calibrib.ttf / calibriz.ttf / HandOfSeanFixed.ttf / ThrowMyHandsUpintheAir.ttf / Vollkorn-Regular.ttf / coolvetica rg.ttf

Video
ID                                       : 1
Format                                   : AVC
Format/Info                              : Advanced Video Codec
Format profile                           : High@L5
Format settings, CABAC                   : Yes
Format settings, ReFrames                : 16 frames
Codec ID                                 : V_MPEG4/ISO/AVC
Duration                                 : 23 min 29 s
Bit rate                                 : 1 514 kb/s
Width                                    : 1 280 pixels
Height                                   : 720 pixels
Display aspect ratio                     : 16:9
Frame rate mode                          : Variable
Frame rate                               : 23.976 FPS
Color space                              : YUV
Chroma subsampling                       : 4:2:0
Bit depth                                : 8 bits
Scan type                                : Progressive
Bits/(Pixel*Frame)                       : 0.069
Stream size                              : 254 MiB (84%)
Title                                    : Japanese (x264)
Writing library                          : x264 core 148 r2762 90a61ec
Encoding settings                        : cabac=1 / ref=16 / deblock=1:1:1 / analyse=0x3:0x133 / me=umh / subme=9 / psy=1 / psy_rd=0.40:0.00 / mixed_ref=1 / me_range=16 / chroma_me=1 / trellis=2 / 8x8dct=1 / cqm=0 / deadzone=21,11 / fast_pskip=1 / chroma_qp_offset=-2 / threads=6 / lookahead_threads=1 / sliced_threads=0 / nr=0 / decimate=1 / interlaced=0 / bluray_compat=0 / constrained_intra=0 / bframes=5 / b_pyramid=2 / b_adapt=2 / b_bias=0 / direct=3 / weightb=1 / open_gop=0 / weightp=2 / keyint=250 / keyint_min=23 / scenecut=40 / intra_refresh=0 / rc_lookahead=60 / rc=crf / mbtree=1 / crf=18.0 / qcomp=0.60 / qpmin=0 / qpmax=69 / qpstep=4 / ip_ratio=1.40 / aq=1:0.60
Language                                 : Japanese
Default                                  : Yes
Forced                                   : No

Audio
ID                                       : 2
Format                                   : AAC
Format/Info                              : Advanced Audio Codec
Format profile                           : LC
Codec ID                                 : A_AAC
Duration                                 : 23 min 30 s
Bit rate                                 : 256 kb/s
Channel(s)                               : 2 channels
Channel positions                        : Front: L R
Sampling rate                            : 48.0 kHz
Frame rate                               : 46.875 FPS (1024 spf)
Compression mode                         : Lossy
Stream size                              : 43.1 MiB (14%)
Title                                    : Japanese (AAC)
Language                                 : Japanese
Default                                  : Yes
Forced                                   : No

Text
ID                                       : 3
Format                                   : ASS
Codec ID                                 : S_TEXT/ASS
Codec ID/Info                            : Advanced Sub Station Alpha
Duration                                 : 23 min 19 s
Bit rate                                 : 237 b/s
Count of elements                        : 464
Compression mode                         : Lossless
Stream size                              : 40.6 KiB (0%)
Title                                    : English (finFAGs, AnimeNetwork)
Language                                 : English
Default                                  : Yes
Forced                                   : No

Menu
00:00:00.000                             : en:OP
00:01:29.986                             : en:Sponsors
00:01:45.001                             : en:Part A (Vs. Hresvelgr)
00:11:13.986                             : en:Part B (First Tale of the F.A. Girls)
00:21:24.971                             : en:ED
00:22:54.978                             : en:Preview
beta
Anime DDL+NZB mirror
Current Time: 04/04/2020 00:10



About/FAQs