[FFF] Akame ga Kill Theater - 14 [BD][720p-AAC][6F0467C7].mkv


File Size10.82 MB (11,341,522 bytes)
DownloadGo4Up | Jheberg | MultiUp
  • ClickNupload
  • Fichier
  • Filerio
  • Free
  • Fufox
  • HugeFiles
  • Mightyupload
  • ToutBox
  • Turbobit
  • UpToBox
  • Uplea
  • UploadBaz
  • Uploadable
  • Uploaded
  • Uppit
  • Userscloud
  • ZippyShare
| OpenLoad | Sendspace | SolidFiles | UsersCloud
HashesCRC32: 6F0467C7, MD5: ADB089FB7C0AFA82C97D56666BFFD7F9, SHA1: 736A6F0645CEC38D345CB25255A3FA8324667FD8, SHA256: 5A60FD760BFC0454384F3BA2AE716D8BB0378B553889B99BC1DDAC99C3B9A8C9, ED2K: C0782B575225B86E73DB4DFE8FD07E76
Screenshots
screenshot
SubtitlesAll Attachments | Vivid-Asenshi [eng, ASS]
Additional Info
General
Unique ID                                : 235210398576939182850334502402090494706 (0xB0F3DFFF0552579999A05812AFE66AF2)
Complete name                            : [FFF] Akame ga Kill Theater - 14 [BD][720p-AAC][6F0467C7].mkv
Format                                   : Matroska
Format version                           : Version 4 / Version 2
File size                                : 10.8 MiB
Duration                                 : 1 min 5 s
Overall bit rate                         : 1 394 kb/s
Encoded date                             : UTC 2016-11-04 03:47:31
Writing application                      : mkvmerge v9.4.2 ('So High') 64bit
Writing library                          : libebml v1.3.4 + libmatroska v1.4.5
Attachments                              : Sub-Alegreya-Bold.otf / SWZ721M.TTF / WCManoNegraBta.otf / ARLRDBD.TTF / ArtificeSSK.ttf / stoneage_1.ttf

Video
ID                                       : 1
Format                                   : AVC
Format/Info                              : Advanced Video Codec
Format profile                           : High 10@L5
Format settings, CABAC                   : Yes
Format settings, ReFrames                : 16 frames
Codec ID                                 : V_MPEG4/ISO/AVC
Duration                                 : 1 min 4 s
Bit rate                                 : 1 142 kb/s
Width                                    : 1 280 pixels
Height                                   : 720 pixels
Display aspect ratio                     : 16:9
Frame rate mode                          : Constant
Frame rate                               : 23.976 (24000/1001) FPS
Color space                              : YUV
Chroma subsampling                       : 4:2:0
Bit depth                                : 10 bits
Scan type                                : Progressive
Bits/(Pixel*Frame)                       : 0.052
Stream size                              : 8.72 MiB (81%)
Title                                    : 10bit H.264 - 720p
Writing library                          : x264 core 148 r2705kMod 3f5ed56
Encoding settings                        : cabac=1 / ref=16 / deblock=1:-1:-1 / analyse=0x3:0x133 / me=umh / subme=10 / psy=1 / fade_compensate=0.80 / psy_rd=0.75:0.00 / mixed_ref=1 / me_range=24 / chroma_me=1 / trellis=2 / 8x8dct=1 / cqm=0 / deadzone=21,11 / fast_pskip=1 / chroma_qp_offset=-2 / threads=4 / lookahead_threads=1 / sliced_threads=0 / nr=0 / decimate=1 / interlaced=0 / bluray_compat=0 / constrained_intra=0 / fgo=0 / bframes=16 / b_pyramid=2 / b_adapt=2 / b_bias=0 / direct=3 / weightb=1 / open_gop=0 / weightp=2 / keyint=250 / keyint_min=23 / scenecut=40 / intra_refresh=0 / rc_lookahead=60 / rc=crf / mbtree=1 / crf=14.0000 / qcomp=0.70 / qpmin=0 / qpmax=81 / qpstep=4 / ip_ratio=1.40 / aq=3:0.80
Language                                 : Japanese
Default                                  : Yes
Forced                                   : No
Color range                              : Limited
Color primaries                          : BT.709
Transfer characteristics                 : BT.709
Matrix coefficients                      : BT.709

Audio
ID                                       : 2
Format                                   : AAC
Format/Info                              : Advanced Audio Codec
Format profile                           : LC
Codec ID                                 : A_AAC
Duration                                 : 1 min 5 s
Bit rate                                 : 223 kb/s
Channel(s)                               : 2 channels
Channel positions                        : Front: L R
Sampling rate                            : 48.0 kHz
Frame rate                               : 46.875 FPS (1024 spf)
Compression mode                         : Lossy
Delay relative to video                  : 20 ms
Stream size                              : 1.73 MiB (16%)
Title                                    : 2.0 AAC
Language                                 : Japanese
Default                                  : Yes
Forced                                   : No

Text
ID                                       : 3
Format                                   : ASS
Codec ID                                 : S_TEXT/ASS
Codec ID/Info                            : Advanced Sub Station Alpha
Duration                                 : 1 min 2 s
Bit rate                                 : 9 447 b/s
Count of elements                        : 529
Compression mode                         : Lossless
Stream size                              : 72.1 KiB (1%)
Title                                    : Vivid-Asenshi
Language                                 : English
Default                                  : Yes
Forced                                   : No

Other Files in this Torrent
[FFF] Akame ga Kill Theater - 14 [BD][720p-AAC][6F0467C7].mkv
beta
Anime DDL+NZB mirror
Current Time: 21/06/2024 08:19



About/FAQs

Discord