[FFF] Akame ga Kill Theater - 03 [BD][1080p-FLAC][EA462079].mkv


File Size35.11 MB (36,814,404 bytes)
DownloadGo4Up | Jheberg | MultiUp
  • ClickNupload
  • Fichier
  • Filerio
  • Free
  • Fufox
  • HugeFiles
  • Mightyupload
  • ToutBox
  • Turbobit
  • UpToBox
  • Uplea
  • UploadBaz
  • Uploadable
  • Uploaded
  • Uppit
  • Userscloud
  • ZippyShare
| OpenLoad | Sendspace | SolidFiles | UsersCloud
HashesCRC32: EA462079, MD5: 20AA712FEEA408ECFD382ED5910D9882, SHA1: CBCF08815172E9335F36195A151F6E7664CE607A, SHA256: 358A249613F37A154BD10C42E785BFC668CD0F59B39138F2CCF745B8DDAF590F, ED2K: 84493BBE439FCA448F74D89CE4E1E832
Screenshots
screenshot
SubtitlesAll Attachments | Vivid-Asenshi [eng, ASS]
Additional Info
General
Unique ID                                : 208612734598774487897664119433078599049 (0x9CF159EA7FE0788DBF7D57494ED96D89)
Complete name                            : [FFF] Akame ga Kill Theater - 03 [BD][1080p-FLAC][EA462079].mkv
Format                                   : Matroska
Format version                           : Version 4 / Version 2
File size                                : 35.1 MiB
Duration                                 : 1 min 1 s
Overall bit rate mode                    : Variable
Overall bit rate                         : 4 823 kb/s
Encoded date                             : UTC 2016-10-23 06:14:12
Writing application                      : mkvmerge v9.4.2 ('So High') 64bit
Writing library                          : libebml v1.3.4 + libmatroska v1.4.5
Attachments                              : Sub-Alegreya-Bold.otf / Sub-Alegreya-BoldItalic.otf / ARLRDBD.TTF / HANDYHANDY.ttf

Video
ID                                       : 1
Format                                   : AVC
Format/Info                              : Advanced Video Codec
Format profile                           : High 10@L5.1
Format settings, CABAC                   : Yes
Format settings, ReFrames                : 16 frames
Codec ID                                 : V_MPEG4/ISO/AVC
Duration                                 : 1 min 0 s
Bit rate                                 : 3 288 kb/s
Width                                    : 1 920 pixels
Height                                   : 1 080 pixels
Display aspect ratio                     : 16:9
Frame rate mode                          : Constant
Frame rate                               : 23.976 (24000/1001) FPS
Color space                              : YUV
Chroma subsampling                       : 4:2:0
Bit depth                                : 10 bits
Scan type                                : Progressive
Bits/(Pixel*Frame)                       : 0.066
Stream size                              : 23.5 MiB (67%)
Title                                    : 10bit H.264 - 1080p
Writing library                          : x264 core 148 r2705kMod 3f5ed56
Encoding settings                        : cabac=1 / ref=16 / deblock=1:-1:-1 / analyse=0x3:0x133 / me=umh / subme=10 / psy=1 / fade_compensate=0.80 / psy_rd=0.75:0.00 / mixed_ref=1 / me_range=24 / chroma_me=1 / trellis=2 / 8x8dct=1 / cqm=0 / deadzone=21,11 / fast_pskip=1 / chroma_qp_offset=-2 / threads=4 / lookahead_threads=1 / sliced_threads=0 / nr=0 / decimate=1 / interlaced=0 / bluray_compat=0 / constrained_intra=0 / fgo=0 / bframes=16 / b_pyramid=2 / b_adapt=2 / b_bias=0 / direct=3 / weightb=1 / open_gop=0 / weightp=2 / keyint=250 / keyint_min=23 / scenecut=40 / intra_refresh=0 / rc_lookahead=60 / rc=crf / mbtree=1 / crf=14.0000 / qcomp=0.70 / qpmin=0 / qpmax=81 / qpstep=4 / ip_ratio=1.40 / aq=3:0.80
Language                                 : Japanese
Default                                  : Yes
Forced                                   : No
Color range                              : Limited
Color primaries                          : BT.709
Transfer characteristics                 : BT.709
Matrix coefficients                      : BT.709

Audio
ID                                       : 2
Format                                   : FLAC
Format/Info                              : Free Lossless Audio Codec
Codec ID                                 : A_FLAC
Duration                                 : 1 min 1 s
Bit rate mode                            : Variable
Bit rate                                 : 1 551 kb/s
Channel(s)                               : 2 channels
Channel positions                        : Front: L R
Sampling rate                            : 48.0 kHz
Frame rate                               : 11.726 FPS (4093 spf)
Bit depth                                : 24 bits
Stream size                              : 11.3 MiB (32%)
Title                                    : 2.0 FLAC
Writing library                          : libFLAC 1.3.1 (UTC 2014-11-25)
Language                                 : Japanese
Default                                  : Yes
Forced                                   : No

Text
ID                                       : 3
Format                                   : ASS
Codec ID                                 : S_TEXT/ASS
Codec ID/Info                            : Advanced Sub Station Alpha
Duration                                 : 1 min 0 s
Bit rate                                 : 575 b/s
Count of elements                        : 44
Compression mode                         : Lossless
Stream size                              : 4.22 KiB (0%)
Title                                    : Vivid-Asenshi
Language                                 : English
Default                                  : Yes
Forced                                   : No

Other Files in this Torrent
[FFF] Akame ga Kill Theater - 03 [BD][1080p-FLAC][EA462079].mkv
beta
Anime DDL+NZB mirror
Current Time: 17/06/2024 08:27



About/FAQs

Discord