[FFF] Akame ga Kill - 11 [BD][1080p-FLAC][6ECCE948].mkv


File Size1.326 GB (1,423,494,708 bytes)
DownloadJheberg: Part1, Part2
MultiUp: Part1
  • ClickNupload
  • Fichier
  • Filerio
  • Free
  • Fufox
  • HugeFiles
  • Mightyupload
  • ToutBox
  • Turbobit
  • UpToBox
  • Uplea
  • UploadBaz
  • Uploadable
  • Uploaded
  • Uppit
  • Userscloud
, Part2
  • ClickNupload
  • Fichier
  • Filerio
  • Free
  • Fufox
  • HugeFiles
  • Mightyupload
  • ToutBox
  • Turbobit
  • UpToBox
  • Uplea
  • UploadBaz
  • Uploadable
  • Uploaded
  • Uppit
  • Userscloud

Sendspace: Part1, Part2, Part3, Part4, Part5
SolidFiles: Part1, Part2, Part3
UsersCloud: Part1, Part2
HashesCRC32: 6ECCE948, MD5: 5E74DD0341762953ADD417354C19C19D, SHA1: 808C5DF7AF7124FA16F52B654CE795B1DEA383AF, SHA256: 532F3AD8E609E59E42E08EE8111D494B2507F333DE14CB9176F01034FA6A590F, ED2K: E3E08A96B688DE78FA0CABC4965E594F
Screenshots
screenshotscreenshotscreenshotscreenshotscreenshot
SubtitlesAll Attachments | Vivid-Asenshi [eng, ASS]
Additional Info
General
Unique ID                                : 205105567502370045859030517202750786087 (0x9A4DE53A5526D232817C5376262BCA27)
Complete name                            : [FFF] Akame ga Kill - 11 [BD][1080p-FLAC][6ECCE948].mkv
Format                                   : Matroska
Format version                           : Version 4 / Version 2
File size                                : 1.33 GiB
Duration                                 : 23 min 41 s
Overall bit rate mode                    : Variable
Overall bit rate                         : 8 014 kb/s
Encoded date                             : UTC 2016-11-04 02:26:32
Writing application                      : mkvmerge v9.4.2 ('So High') 64bit
Writing library                          : libebml v1.3.4 + libmatroska v1.4.5
Attachments                              : KozukaMinchoProStrp-EL.otf / Sub-Alegreya-Bold.otf / Sub-Alegreya-BoldItalic.otf / 9SALERNO.TTF / CK Marker.ttf / HumanaSerifITCLight.ttf

Video
ID                                       : 1
Format                                   : AVC
Format/Info                              : Advanced Video Codec
Format profile                           : High 10@L5.1
Format settings, CABAC                   : Yes
Format settings, ReFrames                : 16 frames
Codec ID                                 : V_MPEG4/ISO/AVC
Duration                                 : 23 min 40 s
Bit rate                                 : 6 463 kb/s
Width                                    : 1 920 pixels
Height                                   : 1 080 pixels
Display aspect ratio                     : 16:9
Frame rate mode                          : Constant
Frame rate                               : 23.976 (24000/1001) FPS
Color space                              : YUV
Chroma subsampling                       : 4:2:0
Bit depth                                : 10 bits
Scan type                                : Progressive
Bits/(Pixel*Frame)                       : 0.130
Stream size                              : 1.07 GiB (81%)
Title                                    : 10bit H.264 - 1080p
Writing library                          : x264 core 148 r2705kMod 3f5ed56
Encoding settings                        : cabac=1 / ref=16 / deblock=1:-1:-1 / analyse=0x3:0x133 / me=umh / subme=10 / psy=1 / fade_compensate=0.80 / psy_rd=0.75:0.00 / mixed_ref=1 / me_range=24 / chroma_me=1 / trellis=2 / 8x8dct=1 / cqm=0 / deadzone=21,11 / fast_pskip=1 / chroma_qp_offset=-2 / threads=4 / lookahead_threads=1 / sliced_threads=0 / nr=0 / decimate=1 / interlaced=0 / bluray_compat=0 / constrained_intra=0 / fgo=0 / bframes=16 / b_pyramid=2 / b_adapt=2 / b_bias=0 / direct=3 / weightb=1 / open_gop=0 / weightp=2 / keyint=250 / keyint_min=23 / scenecut=40 / intra_refresh=0 / rc_lookahead=60 / rc=crf / mbtree=1 / crf=14.0000 / qcomp=0.70 / qpmin=0 / qpmax=81 / qpstep=4 / ip_ratio=1.40 / aq=3:0.80
Language                                 : Japanese
Default                                  : Yes
Forced                                   : No
Color range                              : Limited
Color primaries                          : BT.709
Transfer characteristics                 : BT.709
Matrix coefficients                      : BT.709

Audio
ID                                       : 2
Format                                   : FLAC
Format/Info                              : Free Lossless Audio Codec
Codec ID                                 : A_FLAC
Duration                                 : 23 min 41 s
Bit rate mode                            : Variable
Bit rate                                 : 1 549 kb/s
Channel(s)                               : 2 channels
Channel positions                        : Front: L R
Sampling rate                            : 48.0 kHz
Frame rate                               : 11.719 FPS (4096 spf)
Bit depth                                : 24 bits
Stream size                              : 262 MiB (19%)
Title                                    : 2.0 FLAC
Writing library                          : libFLAC 1.3.1 (UTC 2014-11-25)
Language                                 : Japanese
Default                                  : Yes
Forced                                   : No

Text
ID                                       : 3
Format                                   : ASS
Codec ID                                 : S_TEXT/ASS
Codec ID/Info                            : Advanced Sub Station Alpha
Duration                                 : 23 min 33 s
Bit rate                                 : 365 b/s
Count of elements                        : 623
Compression mode                         : Lossless
Stream size                              : 63.0 KiB (0%)
Title                                    : Vivid-Asenshi
Language                                 : English
Default                                  : Yes
Forced                                   : No

Menu
00:00:00.033                             : en:Prologue
00:00:57.990                             : en:Opening
00:02:27.990                             : en:Part A
00:09:55.990                             : en:Part B
00:21:55.000                             : en:Ending
00:23:25.010                             : en:Preview

Other Files in this Torrent
[FFF] Akame ga Kill - 11 [BD][1080p-FLAC][6ECCE948].mkv
beta
Anime DDL+NZB mirror
Current Time: 20/06/2024 08:20



About/FAQs

Discord