[Fan2Watch] Black Clover - 84 [1080p] [Multi Subs].mkv


File Size894.6 MB (938,076,577 bytes)
DownloadClickNUpload | Jheberg | OpenLoad
MultiUp: Part1
  • BdUpload
  • DownAce
  • Fichier
  • FileCloud
  • Filerio
  • FilesCdn
  • IndiShare
  • Kbagi
  • Solidfiles
  • Turbobit
  • UpToBox
  • Uppit
, Part2
  • BdUpload
  • DownAce
  • Fichier
  • FileCloud
  • Filerio
  • FilesCdn
  • IndiShare
  • Kbagi
  • Solidfiles
  • Turbobit
  • UpToBox
  • Uppit

Sendspace: Part1, Part2, Part3
ZippyShare: Part1, Part2
HashesCRC32: A53622D9, MD5: 586232FDA02E691E8D62CA509E47CAED, SHA1: 99987BDD1F1C0DF8A421CAB5AEE854D5E159A0C1, SHA256: 9EE17EE89BF1DB5E2F9E43E4742E7CB951A55D19C23A5F0833F0441664081B4D, ED2K: 4DBAC99207FB42E1C23D6EECE3B7602E
Screenshots
screenshotscreenshotscreenshotscreenshotscreenshot
SubtitlesAll Attachments | English (US) [eng, ASS], Italiano [ita, ASS], Deutsch [und, ASS], Español (España) [und, ASS], Español [und, ASS], Français (France) [und, ASS], Português (Brasil) [und, ASS], Русский [und, ASS], العربية [und, ASS]
Additional Info
General
Unique ID                                : 252434675442582533247079250824179420399 (0xBDE9266942CC26FF04802B42C1FB0CEF)
Complete name                            : [Fan2Watch] Black Clover - 84 [1080p] [Multi Subs].mkv
Format                                   : Matroska
Format version                           : Version 4
File size                                : 895 MiB
Duration                                 : 23 min 55 s
Overall bit rate                         : 5 226 kb/s
Encoded date                             : UTC 2019-05-22 16:28:33
Writing application                      : mkvmerge v24.0.0 ('Beyond The Pale') 64-bit
Writing library                          : libebml v1.3.6 + libmatroska v1.4.9
Attachments                              : OpenSans-Semibold.ttf

Video
ID                                       : 1
Format                                   : AVC
Format/Info                              : Advanced Video Codec
Format profile                           : High@L4
Format settings                          : CABAC / 4 Ref Frames
Format settings, CABAC                   : Yes
Format settings, ReFrames                : 4 frames
Codec ID                                 : V_MPEG4/ISO/AVC
Duration                                 : 23 min 54 s
Bit rate                                 : 5 099 kb/s
Width                                    : 1 920 pixels
Height                                   : 1 080 pixels
Display aspect ratio                     : 16:9
Frame rate mode                          : Constant
Frame rate                               : 23.976 (24000/1001) FPS
Color space                              : YUV
Chroma subsampling                       : 4:2:0
Bit depth                                : 8 bits
Scan type                                : Progressive
Bits/(Pixel*Frame)                       : 0.103
Stream size                              : 872 MiB (97%)
Writing library                          : x264 core 142
Encoding settings                        : cabac=1 / ref=4 / deblock=1:1:1 / analyse=0x3:0x113 / me=umh / subme=8 / psy=1 / psy_rd=0.40:0.00 / mixed_ref=1 / me_range=16 / chroma_me=1 / trellis=1 / 8x8dct=1 / cqm=0 / deadzone=21,11 / fast_pskip=1 / chroma_qp_offset=-2 / threads=12 / lookahead_threads=2 / sliced_threads=0 / nr=0 / decimate=1 / interlaced=0 / bluray_compat=0 / constrained_intra=0 / bframes=3 / b_pyramid=2 / b_adapt=2 / b_bias=0 / direct=3 / weightb=1 / open_gop=0 / weightp=2 / keyint=9999999 / keyint_min=5000000 / scenecut=0 / intra_refresh=0 / rc_lookahead=50 / rc=crf / mbtree=1 / crf=15.0 / qcomp=0.60 / qpmin=0 / qpmax=69 / qpstep=4 / vbv_maxrate=8000 / vbv_bufsize=12000 / crf_max=0.0 / nal_hrd=none / filler=0 / ip_ratio=1.40 / aq=1:0.60
Default                                  : Yes
Forced                                   : No

Audio
ID                                       : 2
Format                                   : AAC LC
Format/Info                              : Advanced Audio Codec Low Complexity
Codec ID                                 : A_AAC-2
Duration                                 : 23 min 54 s
Bit rate                                 : 128 kb/s
Channel(s)                               : 2 channels
Channel layout                           : L R
Sampling rate                            : 44.1 kHz
Frame rate                               : 43.066 FPS (1024 SPF)
Compression mode                         : Lossy
Delay relative to video                  : -83 ms
Stream size                              : 21.9 MiB (2%)
Language                                 : Japanese
Default                                  : Yes
Forced                                   : No

Text #1
ID                                       : 3
Format                                   : ASS
Codec ID                                 : S_TEXT/ASS
Codec ID/Info                            : Advanced Sub Station Alpha
Duration                                 : 23 min 47 s
Bit rate                                 : 137 b/s
Count of elements                        : 354
Compression mode                         : Lossless
Stream size                              : 23.9 KiB (0%)
Title                                    : English (US)
Language                                 : English
Default                                  : Yes
Forced                                   : No

Text #2
ID                                       : 4
Format                                   : ASS
Codec ID                                 : S_TEXT/ASS
Codec ID/Info                            : Advanced Sub Station Alpha
Duration                                 : 23 min 47 s
Bit rate                                 : 146 b/s
Count of elements                        : 356
Compression mode                         : Lossless
Stream size                              : 25.5 KiB (0%)
Title                                    : Italiano
Language                                 : Italian
Default                                  : No
Forced                                   : No

Text #3
ID                                       : 5
Format                                   : ASS
Codec ID                                 : S_TEXT/ASS
Codec ID/Info                            : Advanced Sub Station Alpha
Duration                                 : 23 min 47 s
Bit rate                                 : 138 b/s
Count of elements                        : 352
Compression mode                         : Lossless
Stream size                              : 24.1 KiB (0%)
Title                                    : Deutsch
Default                                  : No
Forced                                   : No

Text #4
ID                                       : 6
Format                                   : ASS
Codec ID                                 : S_TEXT/ASS
Codec ID/Info                            : Advanced Sub Station Alpha
Duration                                 : 23 min 49 s
Bit rate                                 : 111 b/s
Count of elements                        : 305
Compression mode                         : Lossless
Stream size                              : 19.5 KiB (0%)
Title                                    : Español (España)
Default                                  : No
Forced                                   : No

Text #5
ID                                       : 7
Format                                   : ASS
Codec ID                                 : S_TEXT/ASS
Codec ID/Info                            : Advanced Sub Station Alpha
Duration                                 : 23 min 49 s
Bit rate                                 : 111 b/s
Count of elements                        : 307
Compression mode                         : Lossless
Stream size                              : 19.5 KiB (0%)
Title                                    : Español
Default                                  : No
Forced                                   : No

Text #6
ID                                       : 8
Format                                   : ASS
Codec ID                                 : S_TEXT/ASS
Codec ID/Info                            : Advanced Sub Station Alpha
Duration                                 : 23 min 47 s
Bit rate                                 : 140 b/s
Count of elements                        : 334
Compression mode                         : Lossless
Stream size                              : 24.4 KiB (0%)
Title                                    : Français (France)
Default                                  : No
Forced                                   : No

Text #7
ID                                       : 9
Format                                   : ASS
Codec ID                                 : S_TEXT/ASS
Codec ID/Info                            : Advanced Sub Station Alpha
Duration                                 : 23 min 47 s
Bit rate                                 : 148 b/s
Count of elements                        : 354
Compression mode                         : Lossless
Stream size                              : 25.9 KiB (0%)
Title                                    : Português (Brasil)
Default                                  : No
Forced                                   : No

Text #8
ID                                       : 10
Format                                   : ASS
Codec ID                                 : S_TEXT/ASS
Codec ID/Info                            : Advanced Sub Station Alpha
Duration                                 : 23 min 47 s
Bit rate                                 : 212 b/s
Count of elements                        : 356
Compression mode                         : Lossless
Stream size                              : 37.1 KiB (0%)
Title                                    : Русский
Default                                  : No
Forced                                   : No

Text #9
ID                                       : 11
Format                                   : ASS
Codec ID                                 : S_TEXT/ASS
Codec ID/Info                            : Advanced Sub Station Alpha
Duration                                 : 23 min 47 s
Bit rate                                 : 161 b/s
Count of elements                        : 354
Compression mode                         : Lossless
Stream size                              : 28.1 KiB (0%)
Title                                    : العربية
Default                                  : No
Forced                                   : No
beta
Anime DDL+NZB mirror
Current Time: 17/07/2019 11:31



About/FAQs