Extras/The World of the Talisman - The Ending.mp4


File Size9.759 MB (10,232,892 bytes)
DownloadClickNUpload | Jheberg | MultiUp
  • BdUpload
  • DownAce
  • Fichier
  • FileCloud
  • Filerio
  • FilesCdn
  • IndiShare
  • Kbagi
  • Turbobit
  • UpToBox
  • Uppit
| OpenLoad | Sendspace | SolidFiles | ZippyShare
HashesCRC32: AA0F875E, MD5: 7A6467A9F1BC44134F646429779B4669, SHA1: 057CC1BAC93C022AEA41E79C555D530E6C9FAB63, SHA256: EEBA27599245A1B4B7644C7427EBF7A2DB8B4235BA1ADF7118A4AA078CFBE5C2, ED2K: 2844F3C14DB7B517EF9FC15BD6F699CA
Screenshots
screenshotscreenshotscreenshotscreenshot
Additional Info
General
Complete name                            : The World of the Talisman - The Ending.mp4
Format                                   : MPEG-4
Format profile                           : Base Media / Version 2
Codec ID                                 : mp42 (isom/avc1/mp42)
File size                                : 9.76 MiB
Duration                                 : 3 min 43 s
Overall bit rate mode                    : Variable
Overall bit rate                         : 367 kb/s
Encoded date                             : UTC 2010-09-22 18:17:05
Tagged date                              : UTC 2010-09-22 18:17:05
gsst                                     : 0
gstd                                     : 223515
gssd                                     : BADC23045HH1381782191683029
gshh                                     : r17---sn-5go7dn76.c.youtube.com

Video
ID                                       : 2
Format                                   : AVC
Format/Info                              : Advanced Video Codec
Format profile                           : Baseline@L1.3
Format settings                          : 1 Ref Frames
Format settings, CABAC                   : No
Format settings, ReFrames                : 1 frame
Codec ID                                 : avc1
Codec ID/Info                            : Advanced Video Coding
Duration                                 : 3 min 43 s
Bit rate                                 : 289 kb/s
Maximum bit rate                         : 3 157 kb/s
Width                                    : 320 pixels
Height                                   : 240 pixels
Display aspect ratio                     : 4:3
Frame rate mode                          : Constant
Frame rate                               : 15.000 FPS
Color space                              : YUV
Chroma subsampling                       : 4:2:0
Bit depth                                : 8 bits
Scan type                                : Progressive
Bits/(Pixel*Frame)                       : 0.251
Stream size                              : 7.68 MiB (79%)
Title                                    : (C) 2007 Google Inc. v08.13.2007.
Encoded date                             : UTC 2010-09-22 18:17:05
Tagged date                              : UTC 2010-09-22 18:17:05
Codec configuration box                  : avcC

Audio
ID                                       : 1
Format                                   : AAC LC
Format/Info                              : Advanced Audio Codec Low Complexity
Codec ID                                 : mp4a-40-2
Duration                                 : 3 min 43 s
Bit rate mode                            : Variable
Bit rate                                 : 75.8 kb/s
Maximum bit rate                         : 131 kb/s
Channel(s)                               : 2 channels
Channel layout                           : L R
Sampling rate                            : 44.1 kHz
Frame rate                               : 43.066 FPS (1024 SPF)
Compression mode                         : Lossy
Stream size                              : 2.02 MiB (21%)
Title                                    : (C) 2007 Google Inc. v08.13.2007.
Encoded date                             : UTC 2010-09-22 18:17:05
Tagged date                              : UTC 2010-09-22 18:17:05

Other Files in this Torrent
Extras/The World of the Talisman - The Ending.mp4
beta
Anime DDL+NZB mirror
Current Time: 22/10/2019 12:54



About/FAQs