Extras/[Pn8] Tokyo Ghoul S01TRA The Complete First Season [Funi-DL] [720p] [E7214B23].mp4


File Size53.10 MB (55,682,586 bytes)
DownloadGo4Up | Jheberg | MultiUp | Sendspace | ShareBeast | SolidFiles
HashesCRC32: E7214B23, MD5: A85D0652BA207C5326F3C24386C2AD7E, SHA1: D24CF480EC34E932669ED96A33D09EFD15183582, SHA256: 7B6342B40EB45BBCA6CDF3DB293F706E63C568A870967A45319EF6323A5A0998, ED2K: C717F2275A5F2392CAE2681FA1F0A716
Screenshots
screenshotscreenshot
Additional Info
General
Complete name                            : [Pn8] Tokyo Ghoul S01TRA The Complete First Season [Funi-DL] [720p] [E7214B23].mp4
Format                                   : MPEG-4
Format profile                           : Base Media / Version 2
Codec ID                                 : mp42
File size                                : 53.1 MiB
Duration                                 : 2mn 2s
Overall bit rate mode                    : Variable
Overall bit rate                         : 3 647 Kbps
Collection                               : Tokyo Ghoul
Season                                   : 1
Album                                    : Tokyo Ghoul, Season 1
Album/Performer                          : Tokyo Ghoul
Part                                     : 101
Part/Position                            : 1
Part/Total                               : 1
Track name                               : The Complete First Season
Track name/Position                      : 101
Performer                                : Tokyo Ghoul
Genre                                    : Anime, Dubbed
ContentType                              : TV Show
Description                              : In modern day Tokyo, society lives in fear of Ghouls: mysterious creatures who look exactly like humans -- yet hunger insatiably for their flesh. None of this matters to Ken Kaneki, a bookish and ordinary young man, until a dark and violent encounter t... / In modern day Tokyo, society lives in fear of Ghouls: mysterious creatures who look exactly like humans -- yet hunger insatiably for their flesh. None of this matters to Ken Kaneki, a bookish and ordinary young man, until a dark and violent encounter turns him into the first ever Ghoul-human half breed. Trapped between two worlds, Ken must survive the violent conflicts of warring Ghoul factions, while attempting to learn more about Ghoul society, his newfound powers, and the fine line between man and monster.
Recorded date                            : 2015-08-18
Encoded date                             : UTC 2015-07-13 17:10:42
Tagged date                              : UTC 2015-08-18 18:06:20
Writing application                      : none / Pikanet128
Cover                                    : Yes
Comment                                  : Source=Funicom-DL;
PodcastURL                               : Funicom-DL
LongDescription                          : In modern day Tokyo, society lives in fear of Ghouls: mysterious creatures who look exactly like humans -- yet hunger insatiably for their flesh. None of this matters to Ken Kaneki, a bookish and ordinary young man, until a dark and violent encounter turns him into the first ever Ghoul-human half breed. Trapped between two worlds, Ken must survive the violent conflicts of warring Ghoul factions, while attempting to learn more about Ghoul society, his newfound powers, and the fine line between man and monster.
Part_ID                                  : S01TRA
AppleStoreCatalogID                      : 9532
HDVideo                                  : Yes
AppleStoreAccount                        : Pikanet128
ContentRating                            : us-tv|TV-MA|600|
TVEPISODEIDTMP                           : S01TRA

Video
ID                                       : 1
Format                                   : AVC
Format/Info                              : Advanced Video Codec
Format profile                           : High@L3.1
Format settings, CABAC                   : Yes
Format settings, ReFrames                : 2 frames
Codec ID                                 : avc1
Codec ID/Info                            : Advanced Video Coding
Duration                                 : 2mn 2s
Bit rate mode                            : Constant
Bit rate                                 : 3 500 Kbps
Width                                    : 1 280 pixels
Height                                   : 720 pixels
Display aspect ratio                     : 16:9
Frame rate mode                          : Constant
Frame rate                               : 23.976 fps
Color space                              : YUV
Chroma subsampling                       : 4:2:0
Bit depth                                : 8 bits
Scan type                                : Progressive
Bits/(Pixel*Frame)                       : 0.158
Stream size                              : 50.7 MiB (96%)
Language                                 : English
Encoded date                             : UTC 2015-07-13 17:10:42
Tagged date                              : UTC 2015-07-13 17:10:42
Color primaries                          : BT.709
Transfer characteristics                 : BT.709
Matrix coefficients                      : BT.709
Color range                              : Limited

Audio
ID                                       : 2
Format                                   : AAC
Format/Info                              : Advanced Audio Codec
Format profile                           : LC
Codec ID                                 : 40
Duration                                 : 2mn 2s
Bit rate mode                            : Variable
Bit rate                                 : 126 Kbps
Maximum bit rate                         : 229 Kbps
Channel(s)                               : 2 channels
Channel positions                        : Front: L R
Sampling rate                            : 44.1 KHz
Compression mode                         : Lossy
Stream size                              : 1.83 MiB (3%)
Language                                 : English
Encoded date                             : UTC 2015-07-13 17:10:42
Tagged date                              : UTC 2015-07-13 17:10:42
mdhd_Duration                            : 122160

Other Files in this Torrent
Extras/[Pn8] Tokyo Ghoul S01TRA The Complete First Season [Funi-DL] [720p] [E7214B23].mp4
beta
Anime DDL+NZB mirror
Current Time: 16/01/2021 11:07



About/FAQs