[Exiled-Destiny]_Rozen_Maiden_Overture_Ep02_(56133E4B).mkv


File Size340.1 MB (356,661,340 bytes)
DownloadAnonFiles | Go4Up | Jheberg | MultiUp
  • BayFiles
  • BillionUploads
  • DepositFiles
  • Fichier
  • Free
  • HugeFiles
  • Ryushare
  • Turbobit
  • UpToBox
  • UploadHero
  • Uploaded
| SolidFiles | UsersFiles
Sendspace: Part1, Part2
ShareBeast: Part1, Part2
HashesCRC32: 56133E4B, MD5: 280027B3BC39E3F9BA1DA19DB47E7CA9, SHA1: 3AD7D87328D3B1F3C944A9D6EA865BF1756277B9, SHA256: 6924EB282CC5082AC28A62D0CDE198A6B19230E07277F8AE5EFD8563648AB6F3, ED2K: 9794C770BD9213B48063111891C57500
Screenshots
screenshotscreenshotscreenshotscreenshotscreenshot
SubtitlesAll Attachments | eng [SRT], jpn [SRT], eng [VOB], eng [VOB], jpn [VOB], jpn [VOB]
Additional Info
General
Unique ID                                : 220686165422409399708831082867257269336 (0xA6069C0399176717B5EC844BBEB85C58)
Complete name                            : [Exiled-Destiny]_Rozen_Maiden_Overture_Ep02_(56133E4B).mkv
Format                                   : Matroska
Format version                           : Version 2
File size                                : 340 MiB
Duration                                 : 25mn 12s
Overall bit rate                         : 1 887 Kbps
Encoded date                             : UTC 2011-12-29 09:36:58
Writing application                      : mkvmerge v4.0.0 ('The Stars were mine') built on Jun  6 2010 16:18:42
Writing library                          : libebml v1.0.0 + libmatroska v1.0.0

Video
ID                                       : 1
Format                                   : AVC
Format/Info                              : Advanced Video Codec
Format profile                           : High@L3.0
Format settings, CABAC                   : Yes
Format settings, ReFrames                : 6 frames
Codec ID                                 : V_MPEG4/ISO/AVC
Duration                                 : 25mn 12s
Bit rate                                 : 1 401 Kbps
Nominal bit rate                         : 1 694 Kbps
Width                                    : 720 pixels
Height                                   : 480 pixels
Display aspect ratio                     : 16:9
Original display aspect ratio            : 3:2
Frame rate mode                          : Constant
Frame rate                               : 23.976 fps
Original frame rate                      : 29.970 fps
Standard                                 : NTSC
Color space                              : YUV
Chroma subsampling                       : 4:2:0
Bit depth                                : 8 bits
Scan type                                : Progressive
Bits/(Pixel*Frame)                       : 0.169
Stream size                              : 253 MiB (74%)
Writing library                          : x264 core 116 r2074 2641b9e
Encoding settings                        : cabac=1 / ref=6 / deblock=1:1:1 / analyse=0x3:0x133 / me=tesa / subme=8 / psy=1 / psy_rd=0.40:0.00 / mixed_ref=1 / me_range=16 / chroma_me=1 / trellis=1 / 8x8dct=1 / cqm=2 / deadzone=21,11 / fast_pskip=1 / chroma_qp_offset=-2 / threads=6 / sliced_threads=0 / nr=0 / decimate=1 / interlaced=0 / bluray_compat=0 / constrained_intra=0 / bframes=5 / b_pyramid=0 / b_adapt=1 / b_bias=0 / direct=3 / weightb=1 / open_gop=0 / weightp=2 / keyint=250 / keyint_min=25 / scenecut=40 / intra_refresh=0 / rc_lookahead=40 / rc=2pass / mbtree=1 / bitrate=1694 / ratetol=1.0 / qcomp=0.60 / qpmin=10 / qpmax=51 / qpstep=4 / cplxblur=20.0 / qblur=0.5 / ip_ratio=1.40 / aq=1:0.60
Default                                  : Yes
Forced                                   : No

Audio #1
ID                                       : 2
Format                                   : AC-3
Format/Info                              : Audio Coding 3
Mode extension                           : CM (complete main)
Format settings, Endianness              : Big
Codec ID                                 : A_AC3
Duration                                 : 25mn 12s
Bit rate mode                            : Constant
Bit rate                                 : 224 Kbps
Channel(s)                               : 2 channels
Channel positions                        : Front: L R
Sampling rate                            : 48.0 KHz
Bit depth                                : 16 bits
Compression mode                         : Lossy
Delay relative to video                  : 30ms
Stream size                              : 40.4 MiB (12%)
Language                                 : English
Default                                  : Yes
Forced                                   : No

Audio #2
ID                                       : 3
Format                                   : AC-3
Format/Info                              : Audio Coding 3
Mode extension                           : CM (complete main)
Format settings, Endianness              : Big
Codec ID                                 : A_AC3
Duration                                 : 25mn 12s
Bit rate mode                            : Constant
Bit rate                                 : 224 Kbps
Channel(s)                               : 2 channels
Channel positions                        : Front: L R
Sampling rate                            : 48.0 KHz
Bit depth                                : 16 bits
Compression mode                         : Lossy
Delay relative to video                  : 30ms
Stream size                              : 40.4 MiB (12%)
Language                                 : Japanese
Default                                  : No
Forced                                   : No

Text #1
ID                                       : 4
Format                                   : UTF-8
Codec ID                                 : S_TEXT/UTF8
Codec ID/Info                            : UTF-8 Plain Text
Language                                 : English
Default                                  : Yes
Forced                                   : No

Text #2
ID                                       : 5
Format                                   : UTF-8
Codec ID                                 : S_TEXT/UTF8
Codec ID/Info                            : UTF-8 Plain Text
Language                                 : Japanese
Default                                  : No
Forced                                   : No

Text #3
ID                                       : 6
Format                                   : VobSub
Muxing mode                              : zlib
Codec ID                                 : S_VOBSUB
Codec ID/Info                            : The same subtitle format used on DVDs
Language                                 : English
Default                                  : No
Forced                                   : No

Text #4
ID                                       : 7
Format                                   : VobSub
Muxing mode                              : zlib
Codec ID                                 : S_VOBSUB
Codec ID/Info                            : The same subtitle format used on DVDs
Language                                 : Japanese
Default                                  : No
Forced                                   : No

Menu
00:00:00.000                             : en:Chapter 1
00:01:30.900                             : en:Chapter 2
00:10:38.200                             : en:Chapter 3
00:22:09.200                             : en:Chapter 4
00:23:40.000                             : en:Chapter 5
00:25:10.000                             : en:Chapter 6

Other Files in this Torrent
[Exiled-Destiny]_Rozen_Maiden_Overture_Ep02_(56133E4B).mkv
beta
Anime DDL+NZB mirror
Current Time: 01/07/2022 14:56



About/FAQs

Discord