File Size935.5 MB (980,981,623 bytes)
DownloadClickNUpload | Jheberg | OpenLoad
MultiUp: Part1
  • BdUpload
  • DownAce
  • Fichier
  • FileCloud
  • Filerio
  • FilesCdn
  • IndiShare
  • Kbagi
  • Turbobit
  • UpToBox
  • Uppit
, Part2
  • BdUpload
  • DownAce
  • Fichier
  • FileCloud
  • Filerio
  • FilesCdn
  • IndiShare
  • Kbagi
  • Turbobit
  • UpToBox
  • Uppit

Sendspace: Part1, Part2, Part3, Part4
SolidFiles: Part1, Part2
ZippyShare: Part1, Part2
HashesCRC32: A9D5808F, MD5: D94DC9A0A6A6ECF5CE39ACB9A40B1A1F, SHA1: F0EEA414C076A57022D31FE825521015A8356549, SHA256: 73FD5D6330621CF389C96FD6C6BDE1DEBCFCD97EB434FA7F1F415D3BEFB97CB8, ED2K: 57B8B3EE312E3E5A95A845270AE4AAEB
Screenshots
screenshotscreenshotscreenshotscreenshotscreenshot
Additional Info
General
Complete name                            : [EternalWIXOSS] DanMachi Arrow of the Orion (WEB 1080p x264 10 bit ACC).mkv
Format                                   : MPEG-4
Format profile                           : Base Media
Codec ID                                 : isom (isom/iso2/avc1/mp41)
File size                                : 936 MiB
Duration                                 : 1 h 22 min
Overall bit rate                         : 1 592 kb/s
Movie name                               : [EternalWIXOSS] Dungeon ni Deai wo Motomeru no wa Machigatteiru ka Movie Orion no Ya (WEB 1080p x264 10 bit ACC)
Writing application                      : Lavf58.0.100
FileExtension_Invalid                    : mov mp4 m4v m4a m4b m4p m4r 3ga 3gpa 3gpp 3gp 3gpp2 3g2 k3g jpm jpx mqv ismv isma ismt f4a f4b f4v

Video
ID                                       : 1
Format                                   : AVC
Format/Info                              : Advanced Video Codec
Format profile                           : Main@L4.1
Format settings                          : CABAC / 2 Ref Frames
Format settings, CABAC                   : Yes
Format settings, ReFrames                : 2 frames
Codec ID                                 : avc1
Codec ID/Info                            : Advanced Video Coding
Duration                                 : 1 h 22 min
Bit rate                                 : 1 387 kb/s
Width                                    : 1 920 pixels
Height                                   : 1 080 pixels
Display aspect ratio                     : 16:9
Frame rate mode                          : Constant
Frame rate                               : 23.976 (24000/1001) FPS
Color space                              : YUV
Chroma subsampling                       : 4:2:0
Bit depth                                : 8 bits
Scan type                                : Progressive
Bits/(Pixel*Frame)                       : 0.028
Stream size                              : 815 MiB (87%)
Codec configuration box                  : avcC

Audio
ID                                       : 2
Format                                   : AAC LC
Format/Info                              : Advanced Audio Codec Low Complexity
Codec ID                                 : mp4a-40-2
Duration                                 : 1 h 22 min
Duration_LastFrame                       : -15 ms
Bit rate mode                            : Constant
Bit rate                                 : 199 kb/s
Channel(s)                               : 2 channels
Channel layout                           : L R
Sampling rate                            : 44.1 kHz
Frame rate                               : 43.066 FPS (1024 SPF)
Compression mode                         : Lossy
Stream size                              : 117 MiB (13%)
Language                                 : Japanese
Default                                  : Yes
Alternate group                          : 1

Other Files in this Torrent
[EternalWIXOSS] DanMachi Arrow of the Orion (WEB 1080p x264 10 bit ACC).mkv
beta
Anime DDL+NZB mirror
Current Time: 18/02/2020 19:04



About/FAQs